Важное объявление!
У Нас Все раздачи мультитрекерные, при нуле пиров в релизах, можете смело вставать на закачку!
 
Автор Сообщение

димитри37

Стаж:
3 года 9 месяцев
Сообщений:
1237

Репутация: 127

[+] [-]
Вне форума [Профиль] [ЛС]

Груз 200
Жанр: криминальная драма
Год выпуска: 2007
Продолжительность: 01:29:16
Режиссеры: Алексей Балабанов
В ролях: Агния Кузнецова, Алексей Полуян, Леонид Громов, Алексей Серебряков, Леонид Бичевин, Наталья Акимова, Юрий Степанов, Михаил Скрябин, Сергей Александров, Валентина Андрюкова, Константин Балакирев, Александр Баширов, Алена Фалалеева, Юлия Глазунова, Дмитрий Карпов, Марина Королькова, Игорь Малухин, Ляля Миропольская, Андрей Мокеев, Александр Мосин, Анжелика Неволина
Описание: Фильм замечательного русского "киночернушника" Алексея Балабанова. Жестокая драма о нравах провинциального советского города в разгар афганской войны.
Тяжелый фильм, даже для фильмов Балабанова. Не рекомендую смотреть особо впечатлительным.
Источник - http://rutracker.org/forum/viewtopic.php?t=3900943
Семпл: http://multi-up.com/802480
Качество видео: BDRip-AVC
Формат видео: MKV
Видео: 1280x720 (1.78:1), 23,976 fps, AVC (H.264) ~1905 kbps avg, 0.086 bit/pixel
Аудио: 48 kHz, AC3, 6 ch, ~448 kbps avg

Медиаинфо

Общее
Уникальный идентификатор : 238956585982341829990545819847297914614 (0xB3C55D4B9FF5BDC39881D1734364D6F6)
Полное имя : D:\KINO\Груз 200.mkv
Формат : Matroska
Версия формата : Version 2
Размер файла : 1,47 Гбайт
Продолжительность : 1 ч. 29 м.
Общий поток : 2353 Кбит/сек
Дата кодирования : UTC 2012-12-12 10:02:45
Программа кодирования : mkvmerge v4.0.0 ('The Stars were mine') сборка от Jun 6 2010 16:18:42
Библиотека кодирования : libebml v1.0.0 + libmatroska v1.0.0
Видео
Идентификатор : 1
Формат : AVC
Формат/Информация : Advanced Video Codec
Профиль формата : High@L4.1
Параметр CABAC формата : Да
Параметр ReFrames формата : 8 кадров
Идентификатор кодека : V_MPEG4/ISO/AVC
Продолжительность : 1 ч. 29 м.
Битрейт : 1905 Кбит/сек
Ширина : 1280 пикселей
Высота : 720 пикселей
Соотношение сторон : 16:9
Частота кадров : 23,976 кадра/сек
Цветовое пространство : YUV
Субдискретизация насыщенности : 4:2:0
Битовая глубина : 8 бит
Тип развёртки : Прогрессивная
Бит/(Пиксели*Кадры) : 0.086
Размер потока : 1,16 Гбайт (79%)
Библиотека кодирования : x264 core 125 r2200 999b753
Настройки программы : cabac=1 / ref=8 / deblock=1:-2:-1 / analyse=0x3:0x133 / me=umh / subme=9 / psy=1 / psy_rd=1.00:0.00 / mixed_ref=1 / me_range=16 / chroma_me=1 / trellis=2 / 8x8dct=1 / cqm=0 / deadzone=21,11 / fast_pskip=1 / chroma_qp_offset=-2 / threads=3 / lookahead_threads=1 / sliced_threads=0 / nr=0 / decimate=1 / interlaced=0 / bluray_compat=0 / constrained_intra=0 / bframes=3 / b_pyramid=2 / b_adapt=2 / b_bias=0 / direct=3 / weightb=1 / open_gop=0 / weightp=2 / keyint=240 / keyint_min=23 / scenecut=40 / intra_refresh=0 / rc_lookahead=60 / rc=2pass / mbtree=1 / bitrate=1905 / ratetol=1.0 / qcomp=0.60 / qpmin=10 / qpmax=51 / qpstep=4 / cplxblur=20.0 / qblur=0.5 / vbv_maxrate=50000 / vbv_bufsize=50000 / nal_hrd=none / ip_ratio=1.40 / aq=1:1.00
Default : Нет
Forced : Нет
Аудио
Идентификатор : 2
Формат : AC-3
Формат/Информация : Audio Coding 3
Расширение режима : CM (complete main)
Идентификатор кодека : A_AC3
Продолжительность : 1 ч. 29 м.
Вид битрейта : Постоянный
Битрейт : 448 Кбит/сек
Каналы : 6 каналов
Расположение каналов : Front: L C R, Side: L R, LFE
Частота : 48,0 КГц
Битовая глубина : 16 бит
Метод сжатия : С потерями
Размер потока : 286 Мбайт (19%)
Default : Да
Forced : Нет

Скриншоты

Лог

---[NoImage] avs [info]: 1280x720p 1:1 @ 24000/1001 fps (cfr)
---[NoImage] x264 [info]: using SAR=1/1
---[NoImage] x264 [info]: using cpu capabilities: MMX2 SSE2Fast FastShuffle SSEMisalign LZCNT
---[NoImage] x264 [info]: profile High, level 4.1
---[NoImage]
---[NoImage] x264 [info]: frame I:783 Avg QP:19.87 size: 68629
---[NoImage] x264 [info]: frame P:34436 Avg QP:21.60 size: 20081
---[NoImage] x264 [info]: frame B:93212 Avg QP:24.33 size: 5686
---[NoImage] x264 [info]: consecutive B-frames: 1.0% 1.9% 14.6% 82.5%
---[NoImage] x264 [info]: mb I I16..4: 18.8% 67.6% 13.5%
---[NoImage] x264 [info]: mb P I16..4: 1.4% 2.5% 0.3% P16..4: 44.8% 13.4% 13.0% 0.3% 0.1% skip:24.2%
---[NoImage] x264 [info]: mb B I16..4: 0.2% 0.2% 0.0% B16..8: 44.6% 4.3% 0.9% direct: 2.1% skip:47.6% L0:45.6% L1:51.1% BI: 3.3%
---[NoImage] x264 [info]: 8x8 transform intra:60.8% inter:63.5%
---[NoImage] x264 [info]: direct mvs spatial:96.9% temporal:3.1%
---[NoImage] x264 [info]: coded y,uvDC,uvAC intra: 64.0% 48.4% 19.1% inter: 14.4% 8.7% 0.3%
---[NoImage] x264 [info]: i16 v,h,dc,p: 74% 11% 4% 12%
---[NoImage] x264 [info]: i8 v,h,dc,ddl,ddr,vr,hd,vl,hu: 10% 8% 4% 10% 16% 15% 15% 12% 11%
---[NoImage] x264 [info]: i4 v,h,dc,ddl,ddr,vr,hd,vl,hu: 10% 8% 3% 10% 15% 15% 15% 11% 13%
---[NoImage] x264 [info]: i8c dc,h,v,p: 44% 25% 18% 12%
---[NoImage] x264 [info]: Weighted P-Frames: Y:2.4% UV:0.8%
---[NoImage] x264 [info]: ref P L0: 41.4% 11.2% 19.7% 6.8% 7.1% 5.0% 5.4% 2.8% 0.6% 0.0%
---[NoImage] x264 [info]: ref B L0: 65.4% 15.1% 8.5% 4.1% 3.5% 2.3% 1.1%
---[NoImage] x264 [info]: ref B L1: 91.2% 8.8%
---[NoImage] x264 [info]: kb/s:1904.58
---[NoImage] encoded 128431 frames, 2.71 fps, 1904.58 kb/s
Показать сообщения:    

Текущее время: Сегодня 14:43

Часовой пояс: GMT



Вы не можете начинать темы
Вы не можете отвечать на сообщения
Вы не можете редактировать свои сообщения
Вы не можете удалять свои сообщения
Вы не можете голосовать в опросах
Вы не можете прикреплять файлы к сообщениям
Вы не можете скачивать файлы