Важное объявление!
У Нас Все раздачи мультитрекерные, при нуле пиров в релизах, можете смело вставать на закачку!
 
Автор Сообщение

HUNTER

Стаж:
4 года 4 месяца
Сообщений:
56808

Репутация: 101

[+] [-]
Вне форума [Профиль] [ЛС]

Горячий снег Сталинграда. (Эфир от 02.02.2013)
Год выпуска: 2009
Страна: Россия
Жанр: Документальный
Продолжительность: 00:40:04
Описание: 17 июля 1942 года началась беспримерная по своему масштабу и героизму Сталинградская битва, ставшая переломной в Великой Отечественной войне.
Ровно семьдесят лет назад – 2 февраля 1943 года – Совинформбюро объявило о полной ликвидации немецко-фашистских войск, окруженных в районе Сталинграда. Бои под Сталинградом и в самом городе шли двести дней и ночей. Сражались не только за отдельные районы, но буквально за каждый квадратный метр.
Все сегодня знают про знаменитый дом Павлова, в котором бои шли за каждый этаж, за каждую комнату. Несколько раз враждующие стороны менялись местами – то немцы оказывались на верхних этажах, а наши занимали нижние, то наоборот. Но таких домов в городе было немало. И в каждом гибли люди. И везде были примеры ни с чем несравнимого героизма. Достаточно сказать, что здание железнодорожного вокзала тринадцать раз переходило из рук в руки! Трудно подсчитать, сколько там погибло наших солдат…
Качество: DVB
Формат: MPEG
Видео кодек: MPEG2
Аудио кодек: MPEG Audio (Version 1) (Layer 2)
Видео: MPEG 2, 704 x 576, 25 fps, 2800 kbps
Аудио: MPEG Audio (Version 1) (Layer 2), 2 Ch, 48 KHz, 192 kbps

MediaInfo

Complete name : D:\Горячий снег Сталинграда. (Эфир от 02.02.2013) (2009)_DVB by SLuMeP.mpg
Format : MPEG-PS
File size : 880 MiB
Duration : 40mn 4s
Overall bit rate : 3 069 Kbps
Writing library : (c) 1998-2010 Womble Multimedia, Inc. / MPEG Video Wizard DVD 5.0.0.114 (01/2010) / Apr 20 2010
Video
ID : 224 (0xE0)
Format : MPEG Video
Format version : Version 2
Format profile : Main@Main
Format settings, BVOP : Yes
Format settings, Matrix : Default
Duration : 40mn 4s
Bit rate mode : Variable
Bit rate : 2 816 Kbps
Nominal bit rate : 15.0 Mbps
Width : 704 pixels
Height : 576 pixels
Display aspect ratio : 4:3
Frame rate : 25.000 fps
Standard : PAL
Color space : YUV
Chroma subsampling : 4:2:0
Bit depth : 8 bits
Bits/(Pixel*Frame) : 0.278
Stream size : 807 MiB (92%)
Writing library : (c) 1998-2010 Womble Multimedia, Inc. / MPEG Video Wizard DVD 5.0.0.114 (01/2010) / Apr 20 2010
Audio
ID : 192 (0xC0)
Format : MPEG Audio
Format version : Version 1
Format profile : Layer 2
Duration : 40mn 4s
Bit rate mode : Constant
Bit rate : 192 Kbps
Channel(s) : 2 channels
Sampling rate : 48.0 KHz
Stream size : 55.0 MiB (6%)

Скриншоты



_________________
Показать сообщения:    

Текущее время: Сегодня 12:32

Часовой пояс: GMT



Вы не можете начинать темы
Вы не можете отвечать на сообщения
Вы не можете редактировать свои сообщения
Вы не можете удалять свои сообщения
Вы не можете голосовать в опросах
Вы не можете прикреплять файлы к сообщениям
Вы не можете скачивать файлы