Важное объявление!
У Нас Все раздачи мультитрекерные, при нуле пиров в релизах, можете смело вставать на закачку!
 
Автор Сообщение

HUNTER

Стаж:
4 года 4 месяца
Сообщений:
56722

Репутация: 101

[+] [-]
Вне форума [Профиль] [ЛС]

Горячий город / Пылающий город / Original Gangstas
Страна: США
Студия: Po' Boy Productions
Жанр: боевик, драма, криминал
Год выпуска: 1996
Продолжительность: 01:39:00
Перевод: Авторский (одноголосый закадровый) Павел Санаев
Cубтитры: английские
Оригинальная аудиодорожка: английский
Режиссер: Ларри Коэн / Larry Cohen, Фред Уильямсон / Fred Williamson
В ролях: Фред Уильямсон, Джим Браун, Пэм Гриер, Пол Уинфилд, Изабель Санфорд, Оскар Браун мл., Ричард Раундтри, Рон О’Нил, Кристофер Б. Дункан, Эдди Бо Смит мл.
Описание: Горячий город — это страшный мир чернокожих банд, где убийства происходят каждый день. Парня расстреляли из автомата за то, что он обыграл члена банды в баскетбол. Старика, владельца магазина, застрелили за то, что он сообщил полиции номера машины убийц. Тогда в район возвращается его сын, футбольная звезда, и отец убитого юноши, профессиональный боксер. В юности они были вожаками банды «бунтовщиков». Закупив оружие и, объединив всех нормальных жителей района, они уничтожили подонков в большом сражении.
Кинопоиск
Sample
Тип релиза: WEB-DL 1080p
Контейнер: MKV
Видео: MPEG4 AVC Video, H264, 16:9, 1916x1036, 23.976 fps, 5233 kbps
Аудио: Russian (AC3, 2 ch, 192 kbps, 16 bits, 48.0 KHz) - AVO
Аудио 2: English (AC3, 6 ch, 384 kbps, 16 bits, 48.0 KHz) - оригинал
Формат субтитров: softsub (SRT)

MediaInfo

General
Unique ID : 226548504250696399807052338903950412283 (0xAA6FA7A23C173DF1BE27CDEDA181C9FB)
Complete name : E:\Original Gangstas 1996 WEB-DL 1080p.mkv
Format : Matroska
Format version : Version 4 / Version 2
File size : 4.10 GiB
Duration : 1h 39mn
Overall bit rate : 5 927 Kbps
Encoded date : UTC 2016-01-11 15:18:50
Writing application : mkvmerge v6.1.0 ('Old Devil') built on Mar 2 2013 14:32:37
Writing library : libebml v1.3.0 + libmatroska v1.4.0
Video
ID : 1
Format : AVC
Format/Info : Advanced Video Codec
Format profile : High@L4.0
Format settings, CABAC : Yes
Format settings, ReFrames : 4 frames
Codec ID : V_MPEG4/ISO/AVC
Duration : 1h 38mn
Bit rate : 5 233 Kbps
Width : 1 916 pixels
Height : 1 036 pixels
Display aspect ratio : 1.85:1
Frame rate mode : Constant
Frame rate : 23.976 fps
Color space : YUV
Chroma subsampling : 4:2:0
Bit depth : 8 bits
Scan type : Progressive
Bits/(Pixel*Frame) : 0.110
Stream size : 3.62 GiB (88%)
Language : English
Default : Yes
Forced : No
Color primaries : BT.709
Transfer characteristics : BT.709
Matrix coefficients : BT.709
Audio #1
ID : 2
Format : AC-3
Format/Info : Audio Coding 3
Mode extension : CM (complete main)
Format settings, Endianness : Big
Codec ID : A_AC3
Duration : 1h 39mn
Bit rate mode : Constant
Bit rate : 192 Kbps
Channel count : 2 channels
Channel positions : Front: L R
Sampling rate : 48.0 KHz
Bit depth : 16 bits
Compression mode : Lossy
Stream size : 136 MiB (3%)
Language : Russian
Default : Yes
Forced : No
Audio #2
ID : 3
Format : AC-3
Format/Info : Audio Coding 3
Mode extension : CM (complete main)
Format settings, Endianness : Big
Codec ID : A_AC3
Duration : 1h 39mn
Bit rate mode : Constant
Bit rate : 384 Kbps
Channel count : 6 channels
Channel positions : Front: L C R, Side: L R, LFE
Sampling rate : 48.0 KHz
Bit depth : 16 bits
Compression mode : Lossy
Stream size : 272 MiB (6%)
Language : English
Default : No
Forced : No
Text
ID : 4
Format : UTF-8
Codec ID : S_TEXT/UTF8
Codec ID/Info : UTF-8 Plain Text
Language : English
Default : No
Forced : No
Menu
00:00:00.000 : en:Chapter 1
00:13:48.000 : en:Chapter 2
00:28:32.000 : en:Chapter 3
00:38:47.000 : en:Chapter 4
00:50:45.000 : en:Chapter 5
01:08:02.000 : en:Chapter 6
01:18:52.000 : en:Chapter 7
01:29:56.000 : en:Chapter 8

Скриншоты


_________________
Показать сообщения:    

Текущее время: Сегодня 12:16

Часовой пояс: GMT



Вы не можете начинать темы
Вы не можете отвечать на сообщения
Вы не можете редактировать свои сообщения
Вы не можете удалять свои сообщения
Вы не можете голосовать в опросах
Вы не можете прикреплять файлы к сообщениям
Вы не можете скачивать файлы