Важное объявление!
У Нас Все раздачи мультитрекерные, при нуле пиров в релизах, можете смело вставать на закачку!
 
Автор Сообщение

HUNTER

Стаж:
4 года 4 месяца
Сообщений:
56755

Репутация: 101

[+] [-]
Вне форума [Профиль] [ЛС]

Горькая луна / Bitter Moon
Страна: Франция, Великобритания, США
Студия: Canal+, Les Films Alain Sarde, Columbia Pictures Corporation
Жанр: триллер, драма, мелодрама
Год выпуска: 1992
Продолжительность: 02:19:24
Перевод 1: Профессиональный (дублированный) [студия "Синхрон" - "Хлопушка", DVD9 R5 - CD Land]
Перевод 2: Профессиональный (многоголосый закадровый) [DVD9.NTSC]
Перевод 3: Профессиональный (двухголосый закадровый) [студия "Инис" - Союз видео]
Перевод 4: Одноголосый закадровый (VHS)
Cубтитры: русские, английские, SDH
Оригинальная аудиодорожка: английский
Режиссер: Роман Полански / Roman Polanski
В ролях: Питер Койот, Эмманюэль Сенье, Хью Грант, Кристин Скотт Томас, Виктор Банерджи, Софи Патель, Патрик Альбенк, Смиля Михайлович, Лео Экманн, Люка Веллани, Ришар Дьё, Натали Галан, Эрик Гонсалес, Оливия Брюно, Хивон Грант, Шарлин, Джефри Кэри, Роберт Бенмусса, Стокард Ченнинг, Клер Лопес, Фредерик Лопез
Описание: Случайная встреча ранним весенним утром в парижском автобусе на всю оставшуюся жизнь определила судьбу Оскара и Мими. Их не интересовали романтичность и возвышенная любовь — они хотели исследовать свою страсть. И они исследовали друг друга и себя до полного саморазрушения.- -Тип релиза: WEB-DL 720p
Контейнер: MKV
Видео: MPEG-4 AVC Video, 1280x672 / 1,90:1 (16:9) / ~4165 kbps / 23,976 fps / High@L3.1
Аудио 1: Russian: AC3 2.0 ch, 192 kbps, 48 kHz | дубляж
Аудио 2: Russian: AC3 2.0 ch, 192 kbps, 48 kHz | многоголосый
Аудио 3: Russian: AC3 2.0 ch, 192 kbps, 48 kHz | двухголосый
Аудио 4: Russian: AC3 2.0 ch, 192 kbps, 48 kHz | одноголосый
Аудио 5: English: AAC (LC) 2.0 ch, ~160 kbps, 48 kHz [iTunes]
Формат субтитров: softsub (SRT)
Главы:

MediaInfo

Общее
Уникальный идентификатор : 247367061075255325158100040859477890999 (0xBA1929BB8C07E896853628D93C0C57B7)
Полное имя : M:\Горькая луна 1992.WEB-DL.720p.ДБ.ПМ.ПД.ЛО.Eng.mkv
Формат : Matroska
Версия формата : Version 4 / Version 2
Размер файла : 4,96 Гбайт
Продолжительность : 2 ч. 19 м.
Общий поток : 5093 Кбит/сек
Название фильма : Bitter Moon (1992)
Дата кодирования : UTC 2014-02-18 16:13:53
Программа кодирования : mkvmerge v6.6.0 ('The Edge Of The In Between') built on Dec 18 2013 23:19:42
Библиотека кодирования : libebml v1.3.0 + libmatroska v1.4.1
Видео
Идентификатор : 1
Формат : AVC
Формат/Информация : Advanced Video Codec
Профиль формата : High@L3.1
Параметр CABAC формата : Нет
Параметр ReFrames формата : 2 кадра
Идентификатор кодека : V_MPEG4/ISO/AVC
Продолжительность : 2 ч. 19 м.
Ширина : 1280 пикселей
Высота : 672 пикселя
Соотношение сторон : 1,905
Режим частоты кадров : Постоянный
Частота кадров : 23,976 кадра/сек
Цветовое пространство : YUV
Субдискретизация насыщенности : 4:2:0
Битовая глубина : 8 бит
Тип развёртки : Прогрессивная
Язык : English
Default : Да
Forced : Нет
Основные цвета : BT.709
Характеристики трансфера : BT.709
Коэффициенты матрицы : BT.709
Аудио #1
Идентификатор : 2
Формат : AC-3
Формат/Информация : Audio Coding 3
Расширение режима : CM (complete main)
Параметр Endianness формата : Big
Идентификатор кодека : A_AC3
Продолжительность : 2 ч. 19 м.
Вид битрейта : Постоянный
Битрейт : 192 Кбит/сек
Каналы : 2 канала
Расположение каналов : Front: L R
Частота : 48,0 КГц
Битовая глубина : 16 бит
Метод сжатия : С потерями
Размер потока : 191 Мбайт (4%)
Заголовок : AC3 2.0ch 192kbps - дубляж (студия "Синхрон" - "Хлопушка")
Язык : Russian
Default : Да
Forced : Нет
Аудио #2
Идентификатор : 3
Формат : AC-3
Формат/Информация : Audio Coding 3
Расширение режима : CM (complete main)
Параметр Endianness формата : Big
Идентификатор кодека : A_AC3
Продолжительность : 2 ч. 19 м.
Вид битрейта : Постоянный
Битрейт : 192 Кбит/сек
Каналы : 2 канала
Расположение каналов : Front: L R
Частота : 48,0 КГц
Битовая глубина : 16 бит
Метод сжатия : С потерями
Размер потока : 191 Мбайт (4%)
Заголовок : AC3 2.0ch 192kbps - многоголосый (DVD9.NTSC)
Язык : Russian
Default : Нет
Forced : Нет
Аудио #3
Идентификатор : 4
Формат : AC-3
Формат/Информация : Audio Coding 3
Расширение режима : CM (complete main)
Параметр Endianness формата : Big
Идентификатор кодека : A_AC3
Продолжительность : 2 ч. 19 м.
Вид битрейта : Постоянный
Битрейт : 192 Кбит/сек
Каналы : 2 канала
Расположение каналов : Front: L R
Частота : 48,0 КГц
Битовая глубина : 16 бит
Метод сжатия : С потерями
Размер потока : 191 Мбайт (4%)
Заголовок : AC3 2.0ch 192kbps - двухголосый ("Инис" - Союз видео)
Язык : Russian
Default : Нет
Forced : Нет
Аудио #4
Идентификатор : 5
Формат : AC-3
Формат/Информация : Audio Coding 3
Расширение режима : CM (complete main)
Параметр Endianness формата : Big
Идентификатор кодека : A_AC3
Продолжительность : 2 ч. 19 м.
Вид битрейта : Постоянный
Битрейт : 192 Кбит/сек
Каналы : 2 канала
Расположение каналов : Front: L R
Частота : 48,0 КГц
Битовая глубина : 16 бит
Метод сжатия : С потерями
Размер потока : 191 Мбайт (4%)
Заголовок : AC3 2.0ch 192kbps - одноголосый (VHS)
Язык : Russian
Default : Нет
Forced : Нет
Аудио #5
Идентификатор : 6
Формат : AAC
Формат/Информация : Advanced Audio Codec
Профиль формата : LC
Идентификатор кодека : A_AAC
Продолжительность : 2 ч. 19 м.
Каналы : 2 канала
Расположение каналов : Front: L R
Частота : 48,0 КГц
Метод сжатия : С потерями
Заголовок : AAC (LC) 2.0ch ~160kbps - original (iTunes)
Язык : English
Default : Нет
Forced : Нет
Текст #1
Идентификатор : 7
Формат : UTF-8
Идентификатор кодека : S_TEXT/UTF8
Идентификатор кодека/Информация : UTF-8 Plain Text
Язык : Russian
Default : Нет
Forced : Нет
Текст #2
Идентификатор : 8
Формат : UTF-8
Идентификатор кодека : S_TEXT/UTF8
Идентификатор кодека/Информация : UTF-8 Plain Text
Язык : English
Default : Нет
Forced : Нет
Текст #3
Идентификатор : 9
Формат : UTF-8
Идентификатор кодека : S_TEXT/UTF8
Идентификатор кодека/Информация : UTF-8 Plain Text
Заголовок : SDH
Язык : English
Default : Нет
Forced : Нет
Меню
00:00:00.000 : en:00:00:00.000
00:12:01.000 : en:00:12:01.000
00:22:29.000 : en:00:22:29.000
00:32:49.000 : en:00:32:49.000
00:40:46.000 : en:00:40:46.000
00:50:41.000 : en:00:50:41.000
00:59:37.000 : en:00:59:37.000
01:09:48.000 : en:01:09:48.000
01:18:46.000 : en:01:18:46.000
01:28:27.000 : en:01:28:27.000
01:38:46.000 : en:01:38:46.000
01:47:41.000 : en:01:47:41.000
01:58:39.000 : en:01:58:39.000
02:08:00.000 : en:02:08:00.000
02:16:27.000 : en:02:16:27.000

О звуке

В дублированной дорожке с DVD9 R5 (CD Land) во всех каналах голос, в LFE голос приглушён:

В многоголосой и английской дорожках с DVD9.NTSC в трёх фронтальных каналах голос, в остальных трёх каналах голос приглушён (аккуратно):

На DVD R1 и R2 фильм выходил с двухканальным звуком.

-

Скриншот с названием фильма


_________________
Показать сообщения:    

Текущее время: Сегодня 17:23

Часовой пояс: GMT



Вы не можете начинать темы
Вы не можете отвечать на сообщения
Вы не можете редактировать свои сообщения
Вы не можете удалять свои сообщения
Вы не можете голосовать в опросах
Вы не можете прикреплять файлы к сообщениям
Вы не можете скачивать файлы