Важное объявление!
У Нас Все раздачи мультитрекерные, при нуле пиров в релизах, можете смело вставать на закачку!
 
Автор Сообщение

HUNTER

Стаж:
4 года 4 месяца
Сообщений:
56822

Репутация: 101

[+] [-]
Вне форума [Профиль] [ЛС]

Город грехов 2: Женщина, ради которой стоит убивать / Sin City: A Dame to Kill For-
Год выпуска: 2014
Страна: США, Россия
Жанр: триллер, криминал
Продолжительность: 01:42:08
Перевод: Профессиональный (дублированный)
Русские субтитры: нет
Оригинальная аудиодорожка: английский-Режиссер: Роберт Родригес / Robert Rodriguez, Фрэнк Миллер / Frank Miller
В ролях: Микки Рурк, Джессика Альба, Джош Бролин, Джозеф Гордон-Левитт, Розарио Доусон, Брюс Уиллис, Ева Грин, Пауэрс Бут, Деннис Хейсбёрт, Рэй Лиотта, Кристофер Ллойд, Леди Гага
Описание: Остросюжетный криминальный триллер «Город грехов 2: Женщина, ради которой стоит убивать» является продолжением фильма «Город грехов», вышедшего на экраны в 2005 году. В основу сюжета картины лег второй графический роман Фрэнка Миллера из цикла «Город грехов». Фильм продолжает рассказывать о событиях, происходящих в Городе грехов, на улицах которого уже давно царит хаос и беззаконие. Здесь за каждым углом подстерегает опасность, а предательство и обман стали неотъемлемыми атрибутами повседневной жизни. Однако, несмотря на это, в Бэйсин-Сити все еще есть место чувствам и эмоциям. После того как детектив Джон Хартинган погиб, проститутка Нэнси Каллахан не находит себе места, много пьет и больше всего на свете жаждет отомстить за смерть возлюбленного. Вот только сделать это далеко не просто, ведь в убийстве Хартингана виновен самый опасный человек в городе – сенатор Рорк. Но она не единственная кого в мрачном городе одолевает жажда мести…
-
  • Формат 3D Half SideBySide | Горизонтальная анаморфная стереопара-Качество: BDRip-AVC | Контейнер: MKV
    Видео: 1920x1080 (16:9), 23.976 fps, x264@L4.1 ~12000 kbps
    Аудио 1: Russian 48 kHz, DTS, 3/2 (L,C,R,l,r) + LFE ch, 1509.00 kbps | BD RUS
    Аудио 2: English 48 kHz, DTS, 3/2 (L,C,R,l,r) + LFE ch, 1509.00 kbps | Original
    Субтитры: английские полные, английские полные sdh, английские полные цветные

    Инфо

    Format : Matroska
    File size : 10.7 GiB
    Duration : 1h 42mn
    Overall bit rate : 15.0 Mbps
    Movie name : Sin city
    Encoded date : UTC 2014-11-06 09:16:32
    Writing application : mkvmerge v5.2.0 ('I can't explain') built on Dec 18 2011 18:12:03
    Writing library : libebml v1.2.3 + libmatroska v1.3.0
    Video
    ID : 1
    Format : AVC
    Format/Info : Advanced Video Codec
    Format profile : High@L4.1
    Format settings, CABAC : Yes
    Format settings, ReFrames : 4 frames
    Format settings, GOP : M=7, N=16
    Codec ID : V_MPEG4/ISO/AVC
    Duration : 1h 42mn
    Bit rate : 12.0 Mbps
    Width : 1 920 pixels
    Height : 1 080 pixels
    Display aspect ratio : 16:9
    Frame rate : 23.976 fps
    Color space : YUV
    Chroma subsampling : 4:2:0
    Bit depth : 8 bits
    Scan type : Progressive
    Bits/(Pixel*Frame) : 0.241
    Stream size : 8.35 GiB (78%)
    Title : 3D-SBS
    Writing library : x264 core 142 r2389 956c8d8
    Encoding settings : cabac=1 / ref=4 / deblock=1:-3:-3 / analyse=0x3:0x113 / me=umh / subme=10 / psy=1 / psy_rd=1.00:0.00 / mixed_ref=1 / me_range=32 / chroma_me=1 / trellis=2 / 8x8dct=1 / cqm=0 / deadzone=21,11 / fast_pskip=0 / chroma_qp_offset=-4 / threads=18 / lookahead_threads=2 / sliced_threads=0 / nr=0 / decimate=0 / interlaced=0 / bluray_compat=0 / constrained_intra=0 / bframes=6 / b_pyramid=2 / b_adapt=2 / b_bias=0 / direct=3 / weightb=1 / open_gop=0 / weightp=2 / keyint=250 / keyint_min=23 / scenecut=40 / intra_refresh=0 / rc=2pass / mbtree=0 / bitrate=12000 / ratetol=1.0 / qcomp=0.80 / qpmin=0 / qpmax=69 / qpstep=4 / cplxblur=20.0 / qblur=0.5 / frame-packing=3 / ip_ratio=1.30 / pb_ratio=1.30 / aq=2:0.90
    Language : English
    Audio #1
    ID : 2
    Format : DTS
    Format/Info : Digital Theater Systems
    Codec ID : A_DTS
    Duration : 1h 42mn
    Bit rate mode : Constant
    Bit rate : 1 510 Kbps
    Channel(s) : 6 channels
    Channel positions : Front: L C R, Side: L R, LFE
    Sampling rate : 48.0 KHz
    Bit depth : 24 bits
    Stream size : 1.08 GiB (10%)
    Title : DUB
    Language : Russian
    Audio #2
    ID : 3
    Format : DTS
    Format/Info : Digital Theater Systems
    Codec ID : A_DTS
    Duration : 1h 42mn
    Bit rate mode : Constant
    Bit rate : 1 510 Kbps
    Channel(s) : 6 channels
    Channel positions : Front: L C R, Side: L R, LFE
    Sampling rate : 48.0 KHz
    Bit depth : 24 bits
    Stream size : 1.08 GiB (10%)
    Title : Original
    Language : English
    Text #1
    ID : 4
    Format : UTF-8
    Codec ID : S_TEXT/UTF8
    Codec ID/Info : UTF-8 Plain Text
    Title : Full
    Language : English
    Text #2
    ID : 5
    Format : UTF-8
    Codec ID : S_TEXT/UTF8
    Codec ID/Info : UTF-8 Plain Text
    Title : SDH
    Language : English
    Text #3
    ID : 6
    Format : UTF-8
    Codec ID : S_TEXT/UTF8
    Codec ID/Info : UTF-8 Plain Text
    Title : SDH. Colored
    Language : English
    Menu
    00:00:00.000 : :1 - 0:00:00
    00:07:04.966 : :2 - 0:07:04
    00:14:23.571 : :3 - 0:14:23
    00:20:40.113 : :4 - 0:20:40
    00:26:18.493 : :5 - 0:26:18
    00:31:26.884 : :6 - 0:31:26
    00:38:13.666 : :7 - 0:38:13
    00:45:24.638 : :8 - 0:45:24
    00:50:49.629 : :9 - 0:50:49
    00:57:46.588 : :10 - 0:57:46
    01:07:05.980 : :11 - 1:07:05
    01:12:30.804 : :12 - 1:12:30
    01:16:48.437 : :13 - 1:16:48
    01:23:19.828 : :14 - 1:23:19
    01:28:59.083 : :15 - 1:28:59
    01:35:22.967 : :16 - 1:35:22
    01:42:07.871 : :17 - 1:42:07

    Скриншоты


  • _________________
    Показать сообщения:    

    Текущее время: Сегодня 23:26

    Часовой пояс: GMT



    Вы не можете начинать темы
    Вы не можете отвечать на сообщения
    Вы не можете редактировать свои сообщения
    Вы не можете удалять свои сообщения
    Вы не можете голосовать в опросах
    Вы не можете прикреплять файлы к сообщениям
    Вы не можете скачивать файлы