Важное объявление!
У Нас Все раздачи мультитрекерные, при нуле пиров в релизах, можете смело вставать на закачку!
 
Автор Сообщение

HUNTER

Стаж:
4 года 4 месяца
Сообщений:
56755

Репутация: 101

[+] [-]
Вне форума [Профиль] [ЛС]


Город грехов 2: Женщина, ради которой стоит убивать / Sin City: A Dame to Kill For«There is no justice without sin»-
Год выхода: 2014
Страна: Россия, США
Жанр: Боевик, Криминал, Триллер
Продолжительность: 01:34:12
Перевод: Профессиональный (полное дублирование) [Чистый звук]
Субтитры: Отсутствуют
Режиссер: Фрэнк Миллер, Роберт Родригес
В ролях: Ева Грин, Микки Рурк, Джош Бролин, Джессика Альба, Джозеф Гордон-Левитт, Розарио Доусон, Пауэрс Бут, Деннис Хейсбёрт, Джейми Чунг, Брюс Уиллис
О фильме: В темных переулках Города Грехов Дуайт планирует жестоко отомстить женщине по имени Ава Лорд, которая его предала, в то время как Нэнси пытается смириться со смертью детектива Хартигана.
Качество: WebRip
Формат: avi
Видео кодек: XviD
Аудио кодек: AC3
Видео: Xvid, ~1876 kb/s, 720x384, 25.000 fps
Аудио: 192 kb/s, 2 ch, 48.0 KHz

Mediainfo

Код: copyText_writeLink('this.parentNode.parentNode.nextSibling.nextSibling');
Код:
E:\Gorod.grehov.2.2014.WEBRip.1400Mb.avi
General
Complete name : E:\Gorod.grehov.2.2014.WEBRip.1400Mb.avi
Format : AVI
Format/Info : Audio Video Interleave
File size : 1.37 GiB
Duration : 1h 34mn
Overall bit rate : 2 078 Kbps
Writing application : VirtualDubMod 1.5.10.2 (build 2540/release)
Writing library : VirtualDubMod build 2540/release
Video #0
ID : 0
Format : MPEG-4 Visual
Format profile : Advanced Simple@L5
Format settings, BVOP : 2
Format settings, QPel : No
Format settings, GMC : No warppoints
Format settings, Matrix : Default (MPEG)
Codec ID : XVID
Codec ID/Hint : XviD
Duration : 1h 34mn
Bit rate : 1 876 Kbps
Width : 720 pixels
Height : 384 pixels
Display aspect ratio : 1.85:1
Frame rate : 25.000 fps
Color space : YUV
Chroma subsampling : 4:2:0
Bit depth : 8 bits
Scan type : Progressive
Compression mode : Lossy
Bits/(Pixel*Frame) : 0.271
Stream size : 1.23 GiB (90%)
Writing library : XviD 1.2.1 (UTC 2008-12-04)
Audio #1
ID : 1
Format : AC-3
Format/Info : Audio Coding 3
Mode extension : CM (complete main)
Format settings, Endianness : Big
Codec ID : 2000
Duration : 1h 34mn
Bit rate mode : Constant
Bit rate : 192 Kbps
Channel(s) : 2 channels
Channel positions : Front: L R
Sampling rate : 48.0 KHz
Bit depth : 16 bits
Compression mode : Lossy
Stream size : 129 MiB (9%)
Alignment : Split accross interleaves
Interleave, duration : 40 ms (1.00 video frame)
Interleave, preload duration : 500 ms

Рейтинг

Доп. информация

Сборы в США: $13 609 429
Сборы в мире: + $14 298 005 = $27 907 434
Сборы в России: $7 008 980
Дата мировой премьеры: 19 августа 2014
Дата российской премьеры: 21 августа 2014, «A Company», «Двадцатый Век Фокс СНГ»
Релиз на DVD: 30 сентября 2014, «CD Land»
Релиз на Blu-Ray: 30 сентября 2014, «CD Land»

Скриншоты

-Источник:

_________________
Показать сообщения:    

Текущее время: Сегодня 12:56

Часовой пояс: GMT



Вы не можете начинать темы
Вы не можете отвечать на сообщения
Вы не можете редактировать свои сообщения
Вы не можете удалять свои сообщения
Вы не можете голосовать в опросах
Вы не можете прикреплять файлы к сообщениям
Вы не можете скачивать файлы