Важное объявление!
У Нас Все раздачи мультитрекерные, при нуле пиров в релизах, можете смело вставать на закачку!
 
Автор Сообщение

HUNTER

Стаж:
4 года 4 месяца
Сообщений:
56755

Репутация: 101

[+] [-]
Вне форума [Профиль] [ЛС]

Город воров / The Town-
Страна: США
Жанр: триллер, драма, криминал
Год выпуска: 2010
Продолжительность: 02:04:45
Перевод: Профессиональный (дублированный)
+ Авторский одноголосый закадровый Сербин
Cубтитры: русские, украинские, английские
Оригинальная аудиодорожка: английский-Режиссер: Бен Аффлек / Ben Affleck
В ролях: Бен Аффлек, Ребекка Холл, Джон Хэмм, Джереми Реннер, Блейк Лайвли, Оуэн Бурк, Титус Уэлливер, Пит Постлетуэйт, Крис Купер.
Описание: Дуг МакРэй - один из них, но не стоит «чесать всех под одну гребенку». В отличие от большинства у Дуга был шанс на успех, шанс на то, чтобы не идти по криминальному пути своего отца. Однако вместо этого он стал фактическим лидером группы безжалостных грабителей банков, которые гордятся тем, что берут все, что хотят, и выходят сухими из воды. Единственная семья Дуга - его партнеры по преступному ремеслу, особенно Джем, который, несмотря на всю свою непредсказуемость и дикий нрав, ближе всего к тому, что Дуг понимает под словом «брат». Однако все изменилось после одного дела, в ходе которого Джем ненадолго захватил заложницу - банковского менеджера Клэр Киси. Когда грабители узнают, что девушка живет в самом Чарльстоне, Джем начинает нервничать и решает проверить, как много она успела заметить. Зная, на что способен Джем, Дуг берет это дело на себя. Он разыскивает Клэр, и та даже не представляет, что в их «случайной» встрече нет ничего случайного и что этот очаровательный незнакомец - один из тех людей, которые держали ее жизнь в своих руках всего несколько дней назад.
-
  • Релиз
  • Рип от CtrlHD
  • Автор doclogan
-Тип релиза: BDRip 720p
Контейнер: MKV | Сэмпл
Видео: 1280x534 (2.40:1), 23.976 fps, x264@L4.1 ~ 4667 kbps avg
Аудио 1: Russian 48 kHz, AC3, 3/2 (L,C,R,l,r) + LFE ch, 384.00 kbps avg (R5)
Аудио 2: Russian 48 kHz, DTS, 3/2 (L,C,R,l,r) + LFE ch, 1509.00 kbps avg (Сербин)
Аудио 3: English 48 kHz, DTS, 3/2 (L,C,R,l,r) + LFE ch, 1509.00 kbps avg (Original)
Аудио 4: English 48 kHz, AAC, 2/0 (L,R) 64.00 kbps avg (Комментарии)

Скриншоты

MediaInfo

Общее
Формат : Matroska
Версия формата : Version 4 / Version 2
Размер файла : 7,12 Гбайт
Продолжительность : 2 ч. 4 м.
Общий поток : 8172 Кбит/сек
Название фильма : The Town 2010 Theatrical Cut
Дата кодирования : UTC 2014-02-15 20:25:16
Программа кодирования : mkvmerge v6.6.0 ('The Edge Of The In Between') built on Dec 1 2013 17:55:00
Библиотека кодирования : libebml v1.3.0 + libmatroska v1.4.1
Видео
Идентификатор : 1
Формат : AVC
Формат/Информация : Advanced Video Codec
Профиль формата : High@L4.1
Параметр CABAC формата : Да
Параметр ReFrames формата : 11 кадров
Идентификатор кодека : V_MPEG4/ISO/AVC
Продолжительность : 2 ч. 4 м.
Номинальный битрейт : 4667 Кбит/сек
Ширина : 1280 пикселей
Высота : 534 пикселя
Соотношение сторон : 2,40:1
Режим частоты кадров : Постоянный
Частота кадров : 23,976 кадра/сек
Цветовое пространство : YUV
Субдискретизация насыщенности : 4:2:0
Битовая глубина : 8 бит
Тип развёртки : Прогрессивная
Бит/(Пиксели*Кадры) : 0.285
Библиотека кодирования : x264 core 110 r1820 fdcf2ae
Настройки программы : cabac=1 / ref=11 / deblock=1:-3:-3 / analyse=0x3:0x133 / me=umh / subme=10 / psy=1 / psy_rd=0.90:0.00 / mixed_ref=1 / me_range=32 / chroma_me=1 / trellis=2 / 8x8dct=1 / cqm=0 / deadzone=21,11 / fast_pskip=1 / chroma_qp_offset=-2 / threads=6 / sliced_threads=0 / nr=0 / decimate=1 / interlaced=0 / constrained_intra=0 / bframes=6 / b_pyramid=2 / b_adapt=2 / b_bias=0 / direct=3 / weightb=1 / open_gop=0 / weightp=2 / keyint=250 / keyint_min=23 / scenecut=40 / intra_refresh=0 / rc_lookahead=40 / rc=2pass / mbtree=1 / bitrate=4667 / ratetol=1.0 / qcomp=0.60 / qpmin=0 / qpmax=51 / qpstep=4 / cplxblur=20.0 / qblur=0.5 / ip_ratio=1.40 / aq=1:1.00
Язык : English
Default : Да
Forced : Нет
Аудио #1
Идентификатор : 2
Формат : AC-3
Формат/Информация : Audio Coding 3
Расширение режима : CM (complete main)
Параметр Endianness формата : Big
Идентификатор кодека : A_AC3
Продолжительность : 2 ч. 4 м.
Вид битрейта : Постоянный
Битрейт : 384 Кбит/сек
Каналы : 6 каналов
Расположение каналов : Front: L C R, Side: L R, LFE
Частота : 48,0 КГц
Битовая глубина : 16 бит
Метод сжатия : С потерями
Размер потока : 343 Мбайт (5%)
Заголовок : Дубляж R5
Язык : Russian
Default : Да
Forced : Нет
Аудио #2
Идентификатор : 3
Формат : DTS
Формат/Информация : Digital Theater Systems
Режим : 16
Параметр Endianness формата : Big
Идентификатор кодека : A_DTS
Продолжительность : 2 ч. 4 м.
Вид битрейта : Постоянный
Битрейт : 1509 Кбит/сек
Каналы : 6 каналов
Расположение каналов : Front: L C R, Side: L R, LFE
Частота : 48,0 КГц
Битовая глубина : 24 бит
Метод сжатия : С потерями
Размер потока : 1,31 Гбайт (18%)
Заголовок : Сербин
Язык : Russian
Default : Нет
Forced : Нет
Аудио #3
Идентификатор : 4
Формат : DTS
Формат/Информация : Digital Theater Systems
Режим : 16
Параметр Endianness формата : Big
Идентификатор кодека : A_DTS
Продолжительность : 2 ч. 4 м.
Вид битрейта : Постоянный
Битрейт : 1509 Кбит/сек
Каналы : 6 каналов
Расположение каналов : Front: L C R, Side: L R, LFE
Частота : 48,0 КГц
Битовая глубина : 24 бит
Метод сжатия : С потерями
Размер потока : 1,31 Гбайт (18%)
Заголовок : Original
Язык : English
Default : Нет
Forced : Нет
Аудио #4
Идентификатор : 5
Формат : AAC
Формат/Информация : Advanced Audio Codec
Профиль формата : LC
Идентификатор кодека : A_AAC
Продолжительность : 2 ч. 4 м.
Каналы : 2 канала
Расположение каналов : Front: L R
Частота : 48,0 КГц
Метод сжатия : С потерями
Заголовок : Commentary
Язык : English
Default : Нет
Forced : Нет
Текст #1
Идентификатор : 6
Формат : UTF-8
Идентификатор кодека : S_TEXT/UTF8
Идентификатор кодека/Информация : UTF-8 Plain Text
Заголовок : Forced
Язык : Russian
Default : Да
Forced : Нет
Текст #2
Идентификатор : 7
Формат : UTF-8
Идентификатор кодека : S_TEXT/UTF8
Идентификатор кодека/Информация : UTF-8 Plain Text
Заголовок : Full R5
Язык : Russian
Default : Нет
Forced : Нет
Текст #3
Идентификатор : 8
Формат : UTF-8
Идентификатор кодека : S_TEXT/UTF8
Идентификатор кодека/Информация : UTF-8 Plain Text
Заголовок : Full Goblin
Язык : Russian
Default : Нет
Forced : Нет
Текст #4
Идентификатор : 9
Формат : UTF-8
Идентификатор кодека : S_TEXT/UTF8
Идентификатор кодека/Информация : UTF-8 Plain Text
Заголовок : Full R5
Язык : Ukrainian
Default : Нет
Forced : Нет
Текст #5
Идентификатор : 10
Формат : UTF-8
Идентификатор кодека : S_TEXT/UTF8
Идентификатор кодека/Информация : UTF-8 Plain Text
Заголовок : Full
Язык : English
Default : Нет
Forced : Нет
Меню
00:00:00.000 : en:00:00:00.000
00:10:13.530 : en:00:10:13.530
00:17:50.736 : en:00:17:50.736
00:29:19.216 : en:00:29:19.216
00:38:45.823 : en:00:38:45.823
00:50:42.623 : en:00:50:42.623
00:58:40.934 : en:00:58:40.934
01:09:08.061 : en:01:09:08.061
01:17:31.272 : en:01:17:31.272
01:28:09.117 : en:01:28:09.117
01:37:58.664 : en:01:37:58.664
01:48:42.307 : en:01:48:42.307
01:57:48.270 : en:01:57:48.270

_________________
Показать сообщения:    

Текущее время: Сегодня 10:49

Часовой пояс: GMT



Вы не можете начинать темы
Вы не можете отвечать на сообщения
Вы не можете редактировать свои сообщения
Вы не можете удалять свои сообщения
Вы не можете голосовать в опросах
Вы не можете прикреплять файлы к сообщениям
Вы не можете скачивать файлы