Важное объявление!
У Нас Все раздачи мультитрекерные, при нуле пиров в релизах, можете смело вставать на закачку!
 
Автор Сообщение

HUNTER

Стаж:
4 года 4 месяца
Сообщений:
56822

Репутация: 101

[+] [-]
Вне форума [Профиль] [ЛС]

Горечь и сладость / A Bittersweet Life / Dalkomhan insaeng
«When doing right goes very, very wrong.»
-Год выхода: 2005
Страна: Южная Корея / B.O.M. Film Productions Co. Ltd.
Жанр: Боевик, драма, криминал
Продолжительность: 01:59:21-Режиссер: Ким Чжи Ун
В ролях: Ли Бён Хон, Чжон-мин Хван, Ю-Ми Жонг, Ку Джин, Рой-ха Ким, Ён-чхоль Ким, Ги-ён Ли, Му-ён Ли, Эрик Мун-Перевод: Авторский, профессиональный многоголосый + Original
Субтитры: Russian, English-О фильме:
Сон У - хладнокровный перфекционист, управляющий дорогим рестораном. Он настолько мастерски справляется с работой, что заслужил безграничное доверие босса своей банды, мистера Кана.
У мистера Кана есть проблема - похоже, его юная подружка Хи Су встречается с кем-то на стороне, довериться в этом деликатном деле Кан может лишь Сон У, приказывая ему убить девчонку, если подозрения окажутся правдой. Через несколько дней слежки Сон У застает ее с любовником, но к своему собственному удивлению нарушает приказ и отпускает голубков, эта роковая слабость ввергает банду в необратимую войну.
-Качество: BDRip 1080p
Формат: MKV-Видео кодек: MPEG-4 AVC
Аудио кодек: AC3
Видео: 1920x772 23,976 fps, 9536 kbps
Аудио #1: Russian: AC3, 640 Kbps (6 ch) Авторский (Ю.Сербин)
Аудио #2: Russian: AC3, 224 Kbps (2 ch) Профессиональный многоголосый
Аудио #3: Korean: AC3, 448 Kbps (6 ch) Original
-

Рейтинг

Рейтинг:

MediaInfo & x264

Общее
Уникальный идентификатор : 244222842294263381342905932569415466040 (0xB7BB9BC72A9A422C972D18D2892F3C38)
Полное имя : A.Bittersweet.Life.2006.х264.BDRip.1080р.mkv
Формат : Matroska
Версия формата : Version 4 / Version 2
Размер файла : 7,95 Гбайт
Продолжительность : 1 ч. 59 м.
Общий поток : 9536 Кбит/сек
Название фильма : ☭WIDDER☭
Дата кодирования : UTC 2013-07-11 08:34:28
Программа кодирования : mkvmerge v6.3.0 ('You can't stop me!') built on Jun 28 2013 20:09:41
Библиотека кодирования : libebml v1.3.0 + libmatroska v1.4.0
Видео
Идентификатор : 1
Формат : AVC
Формат/Информация : Advanced Video Codec
Профиль формата : [url=mailto:High@L4.1]High@L4.1[/url]
Параметр CABAC формата : Да
Параметр ReFrames формата : 5 кадров
Идентификатор кодека : V_MPEG4/ISO/AVC
Продолжительность : 1 ч. 59 м.
Битрейт : 8224 Кбит/сек
Ширина : 1920 пикселей
Высота : 772 пикселя
Соотношение сторон : 2,487
Режим частоты кадров : Постоянный
Частота кадров : 23,976 кадра/сек
Цветовое пространство : YUV
Субдискретизация насыщенности : 4:2:0
Битовая глубина : 8 бит
Тип развёртки : Прогрессивная
Бит/(Пиксели*Кадры) : 0.231
Размер потока : 6,70 Гбайт (84%)
Заголовок : A Bittersweet Life / Dalkomhan insaeng (2005)
Библиотека кодирования : x264 core 133 r2334 a3ac64b
Настройки программы : cabac=1 / ref=5 / deblock=1:-3:-3 / analyse=0x3:0x133 / me=umh / subme=11 / psy=1 / psy_rd=1.00:0.00 / mixed_ref=1 / me_range=48 / chroma_me=1 / trellis=2 / 8x8dct=1 / cqm=0 / deadzone=21,11 / fast_pskip=0 / chroma_qp_offset=-2 / threads=12 / lookahead_threads=1 / sliced_threads=0 / nr=0 / decimate=1 / interlaced=0 / bluray_compat=0 / constrained_intra=0 / bframes=6 / b_pyramid=2 / b_adapt=2 / b_bias=0 / direct=3 / weightb=1 / open_gop=0 / weightp=2 / keyint=240 / keyint_min=23 / scenecut=40 / intra_refresh=0 / rc_lookahead=60 / rc=2pass / mbtree=0 / bitrate=8224 / ratetol=1.0 / qcomp=0.60 / qpmin=0 / qpmax=69 / qpstep=4 / cplxblur=20.0 / qblur=0.5 / vbv_maxrate=50000 / vbv_bufsize=60000 / nal_hrd=none / ip_ratio=1.40 / pb_ratio=1.30 / aq=2:0.90
Язык : Korean
Default : Да
Forced : Нет
Аудио #1
Идентификатор : 2
Формат : AC-3
Формат/Информация : Audio Coding 3
Расширение режима : CM (complete main)
Параметр Endianness формата : Big
Идентификатор кодека : A_AC3
Продолжительность : 1 ч. 59 м.
Вид битрейта : Постоянный
Битрейт : 640 Кбит/сек
Каналы : 6 каналов
Расположение каналов : Front: L C R, Side: L R, LFE
Частота : 48,0 КГц
Битовая глубина : 16 бит
Метод сжатия : С потерями
Размер потока : 546 Мбайт (7%)
Заголовок : AC3, 640 Kbps (6 ch) Авторский (Ю.Сербин)
Язык : Russian
Default : Да
Forced : Нет
Аудио #2
Идентификатор : 3
Формат : AC-3
Формат/Информация : Audio Coding 3
Расширение режима : CM (complete main)
Параметр Endianness формата : Big
Идентификатор кодека : A_AC3
Продолжительность : 1 ч. 59 м.
Вид битрейта : Постоянный
Битрейт : 224 Кбит/сек
Каналы : 2 канала
Расположение каналов : Front: L R
Частота : 48,0 КГц
Битовая глубина : 16 бит
Метод сжатия : С потерями
Размер потока : 191 Мбайт (2%)
Заголовок : AC3, 224 Kbps (2 ch) Профессиональный многоголосый
Язык : Russian
Default : Нет
Forced : Нет
Аудио #3
Идентификатор : 4
Формат : AC-3
Формат/Информация : Audio Coding 3
Расширение режима : CM (complete main)
Параметр Endianness формата : Big
Идентификатор кодека : A_AC3
Продолжительность : 1 ч. 59 м.
Вид битрейта : Постоянный
Битрейт : 448 Кбит/сек
Каналы : 6 каналов
Расположение каналов : Front: L C R, Side: L R, LFE
Частота : 48,0 КГц
Битовая глубина : 16 бит
Метод сжатия : С потерями
Размер потока : 382 Мбайт (5%)
Заголовок : AC3, 448 Kbps (6 ch) Original
Язык : Korean
Default : Нет
Forced : Нет
Текст #1
Идентификатор : 5
Формат : UTF-8
Идентификатор кодека : S_TEXT/UTF8
Идентификатор кодека/Информация : UTF-8 Plain Text
Язык : Russian
Default : Нет
Forced : Нет
Текст #2
Идентификатор : 6
Формат : UTF-8
Идентификатор кодека : S_TEXT/UTF8
Идентификатор кодека/Информация : UTF-8 Plain Text
Язык : English
Default : Нет
Forced : Нет
Меню
00:00:00.000 : :Chapter 01
00:05:42.383 : :Chapter 02
00:15:44.944 : :Chapter 03
00:24:13.910 : :Chapter 04
00:30:48.054 : :Chapter 05
00:39:35.372 : :Chapter 06
00:44:30.667 : :Chapter 07
00:47:30.430 : :Chapter 08
00:52:26.184 : :Chapter 09
00:59:52.422 : :Chapter 10
01:05:02.565 : :Chapter 11
01:09:19.655 : :Chapter 12
01:15:24.770 : :Chapter 13
01:26:26.055 : :Chapter 14
01:32:15.655 : :Chapter 15
01:39:27.419 : :Chapter 16
01:45:03.922 : :Chapter 17
01:50:52.479 : :Chapter 18
____________________________________________
x264 [info]: frame I:1028 Avg QP:19.25 size:135909
x264 [info]: frame P:37194 Avg QP:20.29 size: 78954
x264 [info]: frame B:133474 Avg QP:22.35 size: 31742
x264 [info]: consecutive B-frames: 1.8% 2.4% 4.2% 22.7% 26.7% 33.4% 8.8%

Скриншоты


_________________
Показать сообщения:    

Текущее время: Сегодня 06:49

Часовой пояс: GMT



Вы не можете начинать темы
Вы не можете отвечать на сообщения
Вы не можете редактировать свои сообщения
Вы не можете удалять свои сообщения
Вы не можете голосовать в опросах
Вы не можете прикреплять файлы к сообщениям
Вы не можете скачивать файлы