Важное объявление!
У Нас Все раздачи мультитрекерные, при нуле пиров в релизах, можете смело вставать на закачку!
 
Автор Сообщение

HUNTER

Стаж:
4 года 4 месяца
Сообщений:
56842

Репутация: 101

[+] [-]
Вне форума [Профиль] [ЛС]

Гордость / Pride
Страна: Великобритания
Жанр: мелодрама, комедия
Год выпуска: 2014
Продолжительность: 02:01:22
Перевод: Одноголосый закадровый PashaUP
Cубтитры: английские, английские (SDH), русские (elmar), русские (форсированные на не озвученную концовку)
Оригинальная аудиодорожка: английский
Режиссер: Мэттью Уорчас / Matthew Warchus
В ролях: Билл Найи, Имелда Стонтон, Доминик Уэст, Пэдди Консидайн, Эндрю Скотт, Джордж МакКэй, Джозеф Гилган, Бен Шнетцер, Крис Овертон, Фэй Марсей
Описание:
Действие фильма разворачивается в 1984 году, во время правления Маргарет Тэтчер и в разгар забастовки шахтеров.
Картина расскажет о группе геев и лесбиянок, участвующих в лондонском гей-параде и принимающих решение собрать деньги в поддержку семей бастующих горняков. Когда же профсоюз шахтеров стесняется принять собранные средства из рук представителей нетрадиционной сексуальной ориентации, те не сдаются и отправляются на микроавтобусе в шахтерский поселок, находящийся в Уэльсе, чтобы лично осуществить акт благотворительности
- || | -Тип релиза: BDRip 720p (рип от bingda733@iNK)

Контейнер: MKV
Видео: AVC (x264), 1280x536 (2.40:1) at 23,976 fps, 5611 Кbps, 0.341 bpp
Аудио 1: AC3; 448 Kbps; CBR; 6 ch; 48 khz | VO - PashaUP |
Аудио 2: AC3; 640 Kbps; CBR; 6 ch; 48 khz | Английский |
Формат субтитров: softsub (SRT)

Скриншоты || x264 Info || MediaInfo || Notes

MediaInfo
Код:
General
Unique ID                                : 177610544351829631388597554653910045784 (0x859E8BECB4F71FCABD06167C95209458)
Complete name                            : Гордость.2014.L1.720p.BluRay.x264-iNK.mkv
Format                                   : Matroska
Format version                           : Version 4 / Version 2
File size                                : 5.79 GiB
Duration                                 : 2h 1mn
Overall bit rate                         : 6 835 Kbps
Movie name                               : Pride [2014] [720p] VO
Encoded date                             : UTC 2015-03-21 04:11:52
Writing application                      : mkvmerge v7.7.0 ('Six Voices') 32bit built on Feb 28 2015 23:23:00
Writing library                          : libebml v1.3.1 + libmatroska v1.4.2
Video
ID                                       : 1
Format                                   : AVC
Format/Info                              : Advanced Video Codec
Format profile                           : High@L4.1
Format settings, CABAC                   : Yes
Format settings, ReFrames                : 12 frames
Codec ID                                 : V_MPEG4/ISO/AVC
Duration                                 : 2h 1mn
Bit rate                                 : 5 611 Kbps
Width                                    : 1 280 pixels
Height                                   : 536 pixels
Display aspect ratio                     : 2.40:1
Frame rate mode                          : Constant
Frame rate                               : 23.976 fps
Color space                              : YUV
Chroma subsampling                       : 4:2:0
Bit depth                                : 8 bits
Scan type                                : Progressive
Bits/(Pixel*Frame)                       : 0.341
Stream size                              : 4.76 GiB (82%)
Title                                    : profile.php?mode=viewprofile&u=22488948
Writing library                          : x264 core 142 r2431+42 c69a006 tMod [8-bit@4:2:0 X86_64]
Encoding settings                        : cabac=1 / ref=12 / deblock=1:-3:-3 / analyse=0x3:0x113 / me=umh / subme=10 / psy=1 / fade_compensate=0.00 / psy_rd=1.00:0.00 / mixed_ref=1 / me_range=32 / chroma_me=1 / trellis=2 / 8x8dct=1 / cqm=0 / deadzone=21,11 / fast_pskip=0 / chroma_qp_offset=-4 / threads=12 / lookahead_threads=1 / sliced_threads=0 / nr=0 / decimate=0 / interlaced=0 / bluray_compat=0 / constrained_intra=0 / fgo=0 / bframes=6 / b_pyramid=2 / b_adapt=2 / b_bias=0 / direct=3 / weightb=1 / open_gop=0 / weightp=2 / keyint=250 / keyint_min=23 / scenecut=40 / intra_refresh=0 / rc_lookahead=60 / rc=crf / mbtree=0 / crf=16.0000 / qcomp=0.65 / qpmin=0:0:0 / qpmax=69:69:69 / qpstep=4 / vbv_maxrate=62500 / vbv_bufsize=78125 / crf_max=0.0 / nal_hrd=none / filler=0 / ip_ratio=1.40 / pb_ratio=1.30 / aq=4:0.70 / aq-sensitivity=10.00 / aq-factor=1.00:1.00:1.00 / aq2=0 / aq3=0
Language                                 : English
Default                                  : Yes
Forced                                   : No
Audio #1
ID                                       : 2
Format                                   : AC-3
Format/Info                              : Audio Coding 3
Mode extension                           : CM (complete main)
Format settings, Endianness              : Big
Codec ID                                 : A_AC3
Duration                                 : 2h 1mn
Bit rate mode                            : Constant
Bit rate                                 : 448 Kbps
Channel(s)                               : 6 channels
Channel positions                        : Front: L C R, Side: L R, LFE
Sampling rate                            : 48.0 KHz
Bit depth                                : 16 bits
Compression mode                         : Lossy
Stream size                              : 389 MiB (7%)
Title                                    : VO [PashaUP]
Language                                 : Russian
Default                                  : Yes
Forced                                   : No
Audio #2
ID                                       : 3
Format                                   : AC-3
Format/Info                              : Audio Coding 3
Mode extension                           : CM (complete main)
Format settings, Endianness              : Big
Codec ID                                 : A_AC3
Duration                                 : 2h 1mn
Bit rate mode                            : Constant
Bit rate                                 : 640 Kbps
Channel(s)                               : 6 channels
Channel positions                        : Front: L C R, Side: L R, LFE
Sampling rate                            : 48.0 KHz
Bit depth                                : 16 bits
Compression mode                         : Lossy
Stream size                              : 556 MiB (9%)
Language                                 : English
Default                                  : No
Forced                                   : No
Text #1
ID                                       : 4
Format                                   : UTF-8
Codec ID                                 : S_TEXT/UTF8
Codec ID/Info                            : UTF-8 Plain Text
Title                                    : forced
Language                                 : Russian
Default                                  : Yes
Forced                                   : No
Text #2
ID                                       : 5
Format                                   : UTF-8
Codec ID                                 : S_TEXT/UTF8
Codec ID/Info                            : UTF-8 Plain Text
Title                                    : [elmar]
Language                                 : Russian
Default                                  : No
Forced                                   : No
Text #3
ID                                       : 6
Format                                   : UTF-8
Codec ID                                 : S_TEXT/UTF8
Codec ID/Info                            : UTF-8 Plain Text
Language                                 : English
Default                                  : No
Forced                                   : No
Text #4
ID                                       : 7
Format                                   : UTF-8
Codec ID                                 : S_TEXT/UTF8
Codec ID/Info                            : UTF-8 Plain Text
Title                                    : SDH
Language                                 : English
Default                                  : No
Forced                                   : No
Menu
00:00:00.000                             : en:00:00:00.000
00:07:49.344                             : en:00:07:49.344
00:15:40.314                             : en:00:15:40.314
00:22:39.608                             : en:00:22:39.608
00:30:03.260                             : en:00:30:03.260
00:36:01.034                             : en:00:36:01.034
00:44:50.563                             : en:00:44:50.563
00:49:28.632                             : en:00:49:28.632
00:57:16.224                             : en:00:57:16.224
01:02:41.633                             : en:01:02:41.633
01:07:42.850                             : en:01:07:42.850
01:16:27.041                             : en:01:16:27.041
01:23:10.777                             : en:01:23:10.777
01:32:02.058                             : en:01:32:02.058
01:39:48.024                             : en:01:39:48.024
01:46:14.660                             : en:01:46:14.660

x264 Info

x264 [info]: frame I:1584 Avg QP:14.80 size:149590
x264 [info]: frame P:37819 Avg QP:16.65 size: 57116
x264 [info]: frame B:133779 Avg QP:18.65 size: 21207
x264 [info]: consecutive B-frames: 1.9% 1.8% 8.2% 24.9% 17.9% 39.2% 6.1%
Цитата: Русская озвучка взята с этой раздачи, thx: donlego33
Русские субтитры взяты с этой раздачи, thx: el.mar

_________________
Показать сообщения:    

Текущее время: Сегодня 11:55

Часовой пояс: GMT



Вы не можете начинать темы
Вы не можете отвечать на сообщения
Вы не можете редактировать свои сообщения
Вы не можете удалять свои сообщения
Вы не можете голосовать в опросах
Вы не можете прикреплять файлы к сообщениям
Вы не можете скачивать файлы