Важное объявление!
У Нас Все раздачи мультитрекерные, при нуле пиров в релизах, можете смело вставать на закачку!
 
Автор Сообщение

HUNTER

Стаж:
4 года 4 месяца
Сообщений:
56772

Репутация: 101

[+] [-]
Вне форума [Профиль] [ЛС]

Горбун из Нотр-Дама / The Hunchback of Notre Dame-
Год выпуска: 1923
Страна: США
Жанр: драма, немое кино
Продолжительность: 01:49:10
Перевод: Субтитры
Оригинальная аудиодорожка: музыкальное сопровождение
Cубтитры: Русские (Folterknecht), английские интертитры-Режиссер: Уоллес Уорсли / Wallace Worsley
В ролях: Лон Чейни, Пэтси Рут Миллер, Норман Керри, Кейт Лестер, Винифред Брайсон, Найджел Де Брулир, Брэндон Херст, Эрнест Торренс, Талли Маршалл, Гарри фон Метр-Описание:
По мотивам романа Виктора Гюго "Собор Парижской Богоматери".
Купленная в раннем детстве у цыган красотка-танцовщица Эсмеральда привлекает внимание Жеана, злобного младшего братца архиепископа Клода Фролло. Воспылав страстью, он решает похитить танцовщицу с помощью отвратительного горбуна Квазимодо.- | IMDb | Сэмпл-Качество: BDRip 720p (iCO)
Контейнер: MKV
Видео: x264, 958x720 (1.33:1), 23.976 fps, 6498 kbps
Аудио 1: AC3 2.0, 48 kHz, 192 kbps
Аудио 2: AC3 2.0, 48 kHz, 192 kbps — Комментарии
Формат субтитров: softsub (SRT)

MI

nfo
General Information
RELEASE.NAME....: The.Hunchback.of.Notre.Dame.1923.720p.BluRay.DD2.0.x264-iCO.mkv
RUNTiME.........: 01:49:10
SiZE............: 5.24 GB
ViDEO.CODEC.....: x264, 2pass
FRAMERATE.......: 23.976
BiTRATE.........: 6500 kbps
RESOLUTiON......: 958x720
AUDiO1..........: Music score DD 2.0 @ 192 kbps
AUDiO2..........: English DD 2.0 @ 192 kbps - Commentary with Chaney scholar Michael F. Blake
CHAPTERS........: Included and named
SUBTiTLES.......: None
SOURCE..........: The Hunchback of Notre Dame 1923 1080p Blu-ray AVC DD 2.0 (Flicker Alley)
x264 Info
x264 [info]: profile High, level 4.1
x264 [info]: frame I:1040 Avg QP:17.99 size: 81402
x264 [info]: frame P:29608 Avg QP:20.31 size: 47559
x264 [info]: frame B:126391 Avg QP:22.30 size: 30284
x264 [info]: consecutive B-frames: 1.9% 0.7% 2.6% 15.7% 17.6% 29.0% 12.4% 9.7% 5.9% 4.4%
encoded 157039 frames, 4.66 fps, 6498.42 kb/s
General
Unique ID : 227520943210779294484024775104745160052 (0xAB2AF0937CE70A3E87A9242AB56BBD74)
Complete name : The.Hunchback.of.Notre.Dame.1923.720p.BluRay.DD2.0.x264-iCO.mkv
Format : Matroska
Format version : Version 2
File size : 5.25 GiB
Duration : 1h 49mn
Overall bit rate : 6 884 Kbps
Movie name : The Hunchback of Notre Dame / Горбун из Нотр-Дама (1923) – RuTracker
Encoded date : UTC 2015-01-06 13:38:54
Writing application : mkvmerge v7.0.0 ('Where We Going') 64bit built on Jun 9 2014 15:16:27
Writing library : libebml v1.3.0 + libmatroska v1.4.1
Attachements : cover.jpg
Video
ID : 1
Format : AVC
Format/Info : Advanced Video Codec
Format profile : High@L4.1
Format settings, CABAC : Yes
Format settings, ReFrames : 12 frames
Codec ID : V_MPEG4/ISO/AVC
Duration : 1h 49mn
Bit rate : 6 500 Kbps
Width : 958 pixels
Height : 720 pixels
Display aspect ratio : 4:3
Frame rate mode : Constant
Frame rate : 23.976 fps
Color space : YUV
Chroma subsampling : 4:2:0
Bit depth : 8 bits
Scan type : Progressive
Bits/(Pixel*Frame) : 0.393
Stream size : 4.85 GiB (92%)
Title : The.Hunchback.of.Notre.Dame.1923.720p.BluRay.DD2.0.x264-iCO
Writing library : x264 core 142 r2479 dd79a61
Encoding settings : cabac=1 / ref=12 / deblock=1:-3:-3 / analyse=0x3:0x133 / me=umh / subme=10 / psy=1 / psy_rd=1.00:0.00 / mixed_ref=1 / me_range=24 / chroma_me=1 / trellis=2 / 8x8dct=1 / cqm=0 / deadzone=21,11 / fast_pskip=0 / chroma_qp_offset=-2 / threads=6 / lookahead_threads=1 / sliced_threads=0 / nr=0 / decimate=0 / interlaced=0 / bluray_compat=0 / constrained_intra=0 / bframes=9 / b_pyramid=2 / b_adapt=2 / b_bias=0 / direct=3 / weightb=1 / open_gop=0 / weightp=2 / keyint=250 / keyint_min=23 / scenecut=40 / intra_refresh=0 / rc=2pass / mbtree=0 / bitrate=6500 / ratetol=1.0 / qcomp=0.60 / qpmin=0 / qpmax=69 / qpstep=4 / cplxblur=20.0 / qblur=0.5 / ip_ratio=1.40 / pb_ratio=1.30 / aq=2:0.80
Language : English
Default : Yes
Forced : No
Audio #1
ID : 2
Format : AC-3
Format/Info : Audio Coding 3
Mode extension : CM (complete main)
Format settings, Endianness : Big
Codec ID : A_AC3
Duration : 1h 49mn
Bit rate mode : Constant
Bit rate : 192 Kbps
Channel(s) : 2 channels
Channel positions : Front: L R
Sampling rate : 48.0 KHz
Bit depth : 16 bits
Compression mode : Lossy
Stream size : 150 MiB (3%)
Title : Score by Donald Hunsberger
Default : Yes
Forced : No
Audio #2
ID : 3
Format : AC-3
Format/Info : Audio Coding 3
Mode extension : CM (complete main)
Format settings, Endianness : Big
Codec ID : A_AC3
Duration : 1h 49mn
Bit rate mode : Constant
Bit rate : 192 Kbps
Channel(s) : 2 channels
Channel positions : Front: L R
Sampling rate : 48.0 KHz
Bit depth : 16 bits
Compression mode : Lossy
Stream size : 150 MiB (3%)
Title : Commentary with Chaney scholar Michael F. Blake
Language : English
Default : No
Forced : No
Text
ID : 4
Format : UTF-8
Codec ID : S_TEXT/UTF8
Codec ID/Info : UTF-8 Plain Text
Title : Folterknecht
Language : Russian
Default : Yes
Forced : No
Menu
00:00:00.000 : :The Notre Dame Cathedral
00:02:23.352 : :The Festival of Fools
00:10:54.654 : :Esmeralda!
00:16:03.045 : :Phoebus de Chateaupers
00:21:14.106 : :Jehan's Betrayal
00:25:54.344 : :The Court of Miracles
00:32:04.172 : :The Hanging of Gringoire
00:36:23.723 : :Punishment for Quasimodo
00:42:44.687 : :Phoebus' Proposal
00:47:25.009 : :Clopin to the Rescue!
00:53:53.272 : :Losing Esmeralda
00:59:28.106 : :Angelus
01:04:50.720 : :Esmeralda's Confession
01:09:10.021 : :Condemned to Hang
01:16:51.649 : :The Death Nell
01:19:56.458 : :"Sanctuary!"
01:25:11.106 : :An Uprising
01:31:05.126 : :Attacking the Cathedral
01:34:44.721 : :Defending Notre Dame
01:42:10.833 : :Sacrifice
01:48:27.084 : :End Credits

_________________
Показать сообщения:    

Текущее время: Сегодня 11:29

Часовой пояс: GMT



Вы не можете начинать темы
Вы не можете отвечать на сообщения
Вы не можете редактировать свои сообщения
Вы не можете удалять свои сообщения
Вы не можете голосовать в опросах
Вы не можете прикреплять файлы к сообщениям
Вы не можете скачивать файлы