Важное объявление!
У Нас Все раздачи мультитрекерные, при нуле пиров в релизах, можете смело вставать на закачку!
 
Автор Сообщение

HUNTER

Стаж:
4 года 4 месяца
Сообщений:
56829

Репутация: 101

[+] [-]
Вне форума [Профиль] [ЛС]

Горбун из Нотр-Дама / The Hunchback of Notre Dame-
Год выпуска: 1923
Страна: США
Жанр: драма, немое кино
Продолжительность: 01:49:10
Перевод: Субтитры
Оригинальная аудиодорожка: музыкальное сопровождение
Cубтитры: Русские (Folterknecht), английские интертитры-Режиссер: Уоллес Уорсли / Wallace Worsley
В ролях: Лон Чейни, Пэтси Рут Миллер, Норман Керри, Кейт Лестер, Винифред Брайсон, Найджел Де Брулир, Брэндон Херст, Эрнест Торренс, Талли Маршалл, Гарри фон Метр-Описание:
По мотивам романа Виктора Гюго "Собор Парижской Богоматери".
Купленная в раннем детстве у цыган красотка-танцовщица Эсмеральда привлекает внимание Жеана, злобного младшего братца архиепископа Клода Фролло. Воспылав страстью, он решает похитить танцовщицу с помощью отвратительного горбуна Квазимодо.- | IMDb | Сэмпл-Качество: BDRemux 1080p (The Hunchback of Notre Dame 1923 1080p Blu-ray AVC DD 2.0, thx buchanan)
Контейнер: MKV
Видео: AVC, 1920x1080 (1.33:1), 23.976 fps, 17998 kbps
Аудио 1: AC3 2.0, 48 kHz, 192 kbps
Аудио 2: AC3 2.0, 48 kHz, 192 kbps — Комментарии
Формат субтитров: softsub (SRT)
СкриншотыMI
General
Unique ID : 245478193690079020968815061991278985151 (0xB8AD616161CA566BBC1D8F6AA1BB3FBF)
Complete name : The.Hunchback.of.Notre.Dame.1923.1080p.Remux.mkv
Format : Matroska
Format version : Version 2
File size : 14.0 GiB
Duration : 1h 49mn
Overall bit rate mode : Variable
Overall bit rate : 18.4 Mbps
Movie name : The Hunchback of Notre Dame / Горбун из Нотр-Дама (1923) – RuTracker
Encoded date : UTC 2014-05-24 06:14:42
Writing application : mkvmerge v6.1.0 ('Old Devil') built on Mar 2 2013 14:32:37
Writing library : libebml v1.3.0 + libmatroska v1.4.0
Attachment : Yes
Video
ID : 1
Format : AVC
Format/Info : Advanced Video Codec
Format profile : High@L4.1
Format settings, CABAC : Yes
Format settings, ReFrames : 4 frames
Codec ID : V_MPEG4/ISO/AVC
Duration : 1h 49mn
Bit rate mode : Variable
Bit rate : 17.6 Mbps
Maximum bit rate : 35.0 Mbps
Width : 1 920 pixels
Height : 1 080 pixels
Display aspect ratio : 16:9
Frame rate mode : Constant
Frame rate : 23.976 fps
Standard : NTSC
Color space : YUV
Chroma subsampling : 4:2:0
Bit depth : 8 bits
Scan type : Progressive
Bits/(Pixel*Frame) : 0.355
Stream size : 13.4 GiB (96%)
Title : The Hunchback of Notre Dame 1923 1080p Blu-ray AVC DD 2.0
Language : English
Default : Yes
Forced : No
Color primaries : BT.709
Transfer characteristics : BT.709
Matrix coefficients : BT.709
Audio #1
ID : 2
Format : AC-3
Format/Info : Audio Coding 3
Mode extension : CM (complete main)
Format settings, Endianness : Big
Codec ID : A_AC3
Duration : 1h 49mn
Bit rate mode : Constant
Bit rate : 192 Kbps
Channel(s) : 2 channels
Channel positions : Front: L R
Sampling rate : 48.0 KHz
Bit depth : 16 bits
Compression mode : Lossy
Stream size : 150 MiB (1%)
Title : Score by Donald Hunsberger
Language : English
Default : Yes
Forced : No
Audio #2
ID : 3
Format : AC-3
Format/Info : Audio Coding 3
Mode extension : CM (complete main)
Format settings, Endianness : Big
Codec ID : A_AC3
Duration : 1h 49mn
Bit rate mode : Constant
Bit rate : 192 Kbps
Channel(s) : 2 channels
Channel positions : Front: L R
Sampling rate : 48.0 KHz
Bit depth : 16 bits
Compression mode : Lossy
Stream size : 150 MiB (1%)
Title : Commentary with Chaney Scholar Michael F. Blake
Language : English
Default : No
Forced : No
Text
ID : 4
Format : UTF-8
Codec ID : S_TEXT/UTF8
Codec ID/Info : UTF-8 Plain Text
Title : Folterknecht
Language : Russian
Default : Yes
Forced : No
Menu
00:00:00.000 : en:01. The Notre Dame Cathedral
00:02:23.352 : en:02. The Festival of Fools
00:10:54.654 : en:03. Esmeralda!
00:16:03.045 : en:04. Phoebus de Chateaupers
00:21:14.106 : en:05. Jehan's Betrayal
00:25:54.344 : en:06. The Court of Miracles
00:32:04.172 : en:07. The Hanging of Gringoire
00:36:23.723 : en:08. Punishment for Quasimodo
00:42:44.687 : en:09. Phoebus's Proposal
00:47:25.009 : en:10. Clopin to the Rescue!
00:53:53.272 : en:11. Losing Esmeralda
00:59:28.106 : en:12. Angelus
01:04:50.720 : en:13. Esmeralda's Confession
01:09:10.021 : en:14. Condemned to Hang
01:16:51.649 : en:15. The Death Nell
01:19:56.458 : en:16. "Sanctuary!"
01:25:11.106 : en:17. An Uprising
01:31:05.126 : en:18. Attacking the Cathedral
01:34:44.721 : en:19. Defending Notre Dame
01:42:10.833 : en:20. Sacrifice
01:48:27.084 : en:21. End Credits

_________________
Показать сообщения:    

Текущее время: Сегодня 20:46

Часовой пояс: GMT



Вы не можете начинать темы
Вы не можете отвечать на сообщения
Вы не можете редактировать свои сообщения
Вы не можете удалять свои сообщения
Вы не можете голосовать в опросах
Вы не можете прикреплять файлы к сообщениям
Вы не можете скачивать файлы