Важное объявление!
У Нас Все раздачи мультитрекерные, при нуле пиров в релизах, можете смело вставать на закачку!
 
Автор Сообщение

HUNTER

Стаж:
4 года 4 месяца
Сообщений:
56734

Репутация: 101

[+] [-]
Вне форума [Профиль] [ЛС]

Гонка / Rush
Страна: США, Германия, Великобритания / Imagine Entertainment, Working Title Films, Action Concept Film- und
Жанр: Драма, биография, спорт
Год выпуска: 2013
Продолжительность: 02:02:42-Перевод: Одноголосый закадровый А.Киреев по переводу А.Никольского [ненормативная лексика]
Cубтитры: русские (набиты не по переводу), английские (Full, SDH, SDH-Colored)
Формат субтитров: softsub (SRT)
Оригинальная аудиодорожка: английский-Режиссер: Рон Ховард / Ron Howard
В ролях: Крис Хемсворт, Оливия Уайлд, Натали Дормер, Даниэль Брюль, Александра Мария Лара, Ли Асквит-Коу, Том Влашиха, Жозефин Де Ла Буме, Джулиан Сигер, Пьерфранческо Фавинос
Описание: 70-е годы XX века. Золотое время «Формулы-1»: обтекаемые формы гоночных машин, брутальные на треке и ранимые в обычной жизни гонщики, сексуальные поклонницы, литры шампанского на финише для победителя… Два непримиримых соперника в истории гонок — обаятельный плейбой-англичанин Джеймс Хант и дисциплинированный перфекционист-австриец Ники Лауда — доводят себя до предела физической и психологической выносливости ради триумфа на трассе. Для них нет легких путей к победе и права на ошибку. Единственный промах гонщикам может стоить карьеры и даже жизни.-
Релиз от:
Автор рипа: potroks-Тип релиза: BDRip 720p
Контейнер: MKV
Видео: x.264, 1280x534 (2,40:1), 23,976 fps, 4932 Кbps, 0.301 bit/pixel
Аудио#1: 48 kHz, AC3 Dolby Digital, 3/2 (L,C,R,l,r) + LFE ch, 448.00 kbps | RUS
Аудио#2: 48 kHz, AC3 Dolby Digital, 3/2 (L,C,R,l,r) + LFE ch, 448.00 kbps | ENG

MediaInfo

Общее
Уникальный идентификатор : 216583248977703131961279610663812826421 (0xA2F06A9D821561B3B3AC5245A53D8535)
Полное имя : Gonka.2013.DUAL.BDRip.720p.-HELLYWOOD.mkv
Формат : Matroska
Версия формата : Version 4 / Version 2
Размер файла : 5,00 Гбайт
Продолжительность : 2 ч. 2 м.
Общий поток : 5829 Кбит/сек
Название фильма : HELLYWOOD - rip by potroks
Дата кодирования : UTC 2014-01-23 17:22:44
Программа кодирования : mkvmerge v5.9.0 ('On The Loose') built on Dec 15 2012 16:39:58
Библиотека кодирования : libebml v1.3.0 + libmatroska v1.4.0
Видео
Идентификатор : 1
Формат : AVC
Формат/Информация : Advanced Video Codec
Профиль формата : High@L4.1
Параметр CABAC формата : Да
Параметр ReFrames формата : 9 кадров
Идентификатор кодека : V_MPEG4/ISO/AVC
Продолжительность : 2 ч. 2 м.
Битрейт : 4932 Кбит/сек
Ширина : 1280 пикселей
Высота : 534 пикселя
Соотношение сторон : 2,40:1
Режим частоты кадров : Постоянный
Частота кадров : 23,976 кадра/сек
Цветовое пространство : YUV
Субдискретизация насыщенности : 4:2:0
Битовая глубина : 8 бит
Тип развёртки : Прогрессивная
Бит/(Пиксели*Кадры) : 0.301
Размер потока : 4,13 Гбайт (83%)
Заголовок : Rush
Библиотека кодирования : x264 core 130 r2273 b3065e6
Настройки программы : cabac=1 / ref=9 / deblock=1:-3:-2 / analyse=0x3:0x133 / me=umh / subme=11 / psy=1 / psy_rd=1.06:0.00 / mixed_ref=1 / me_range=32 / chroma_me=1 / trellis=2 / 8x8dct=1 / cqm=0 / deadzone=21,11 / fast_pskip=0 / chroma_qp_offset=-2 / threads=6 / lookahead_threads=8 / sliced_threads=0 / nr=0 / decimate=0 / interlaced=0 / bluray_compat=0 / constrained_intra=0 / bframes=10 / b_pyramid=2 / b_adapt=2 / b_bias=0 / direct=3 / weightb=1 / open_gop=0 / weightp=2 / keyint=250 / keyint_min=23 / scenecut=40 / intra_refresh=0 / rc_lookahead=60 / rc=2pass / mbtree=0 / bitrate=4932 / ratetol=1.0 / qcomp=0.70 / qpmin=0 / qpmax=69 / qpstep=4 / cplxblur=20.0 / qblur=0.5 / vbv_maxrate=50000 / vbv_bufsize=62500 / nal_hrd=none / ip_ratio=1.35 / pb_ratio=1.25 / aq=1:0.70
Язык : English
Default : Да
Forced : Нет
Аудио #1
Идентификатор : 2
Формат : AC-3
Формат/Информация : Audio Coding 3
Расширение режима : CM (complete main)
Параметр Endianness формата : Big
Идентификатор кодека : A_AC3
Продолжительность : 2 ч. 2 м.
Вид битрейта : Постоянный
Битрейт : 448 Кбит/сек
Каналы : 6 каналов
Расположение каналов : Front: L C R, Side: L R, LFE
Частота : 48,0 КГц
Битовая глубина : 16 бит
Метод сжатия : С потерями
Размер потока : 393 Мбайт (8%)
Заголовок : VO | DD 5.1 @ 448 kbps - А. Киреев
Язык : Russian
Default : Да
Forced : Нет
Аудио #2
Идентификатор : 3
Формат : AC-3
Формат/Информация : Audio Coding 3
Расширение режима : CM (complete main)
Параметр Endianness формата : Big
Идентификатор кодека : A_AC3
Продолжительность : 2 ч. 2 м.
Вид битрейта : Постоянный
Битрейт : 448 Кбит/сек
Каналы : 6 каналов
Расположение каналов : Front: L C R, Side: L R, LFE
Частота : 48,0 КГц
Битовая глубина : 16 бит
Метод сжатия : С потерями
Размер потока : 393 Мбайт (8%)
Заголовок : Original | DD 5.1 @ 448 kbps
Язык : English
Default : Нет
Forced : Нет
Текст #1
Идентификатор : 4
Формат : UTF-8
Идентификатор кодека : S_TEXT/UTF8
Идентификатор кодека/Информация : UTF-8 Plain Text
Язык : Russian
Default : Нет
Forced : Нет
Текст #2
Идентификатор : 5
Формат : UTF-8
Идентификатор кодека : S_TEXT/UTF8
Идентификатор кодека/Информация : UTF-8 Plain Text
Заголовок : Full
Язык : English
Default : Нет
Forced : Нет
Текст #3
Идентификатор : 6
Формат : UTF-8
Идентификатор кодека : S_TEXT/UTF8
Идентификатор кодека/Информация : UTF-8 Plain Text
Заголовок : SDH-Colored
Язык : English
Default : Нет
Forced : Нет
Текст #4
Идентификатор : 7
Формат : UTF-8
Идентификатор кодека : S_TEXT/UTF8
Идентификатор кодека/Информация : UTF-8 Plain Text
Заголовок : SDH
Язык : English
Default : Нет
Forced : Нет
Меню
00:00:00.000 : en:(01)00:00:00:000
00:12:17.027 : en:(02)00:12:17:027
00:21:58.150 : en:(03)00:21:58:150
00:28:46.725 : en:(04)00:28:46:725
00:40:03.192 : en:(05)00:40:03:192
00:48:00.210 : en:(06)00:48:00:210
00:59:03.873 : en:(07)00:59:03:873
01:05:39.769 : en:(08)01:05:39:769
01:19:03.947 : en:(09)01:19:03:947
01:29:31.366 : en:(10)01:29:31:366
01:42:21.635 : en:(11)01:42:21:635
01:46:42.396 : en:(12)01:46:42:396

log@x.264

x264 [info]: frame I:1317 Avg QP:14.10 size: 97159
x264 [info]: frame P:55156 Avg QP:16.86 size: 40977
x264 [info]: frame B:120022 Avg QP:18.17 size: 17905
x264 [info]: consecutive B-frames: 7.9% 12.5% 15.0% 23.1% 13.5% 21.8% 3.0% 1.0% 0.9% 0.5% 0.6%
x264 [info]: mb I I16..4: 9.4% 73.1% 17.4%
x264 [info]: mb P I16..4: 1.8% 17.5% 1.9% P16..4: 25.2% 31.2% 11.3% 1.7% 0.2% skip: 9.2%
x264 [info]: mb B I16..4: 0.3% 2.5% 0.2% B16..8: 33.7% 25.5% 5.1% direct: 7.4% skip:25.3% L0:41.5% L1:42.7% BI:15.9%
x264 [info]: 8x8 transform intra:81.6% inter:61.9%
x264 [info]: direct mvs spatial:97.3% temporal:2.7%
x264 [info]: coded y,uvDC,uvAC intra: 82.8% 86.9% 72.3% inter: 36.7% 37.5% 19.8%
x264 [info]: i16 v,h,dc,p: 28% 14% 6% 52%
x264 [info]: i8 v,h,dc,ddl,ddr,vr,hd,vl,hu: 11% 9% 8% 9% 13% 13% 13% 12% 14%
x264 [info]: i4 v,h,dc,ddl,ddr,vr,hd,vl,hu: 16% 10% 8% 8% 14% 13% 12% 10% 11%
x264 [info]: i8c dc,h,v,p: 40% 24% 17% 20%
x264 [info]: Weighted P-Frames: Y:3.2% UV:1.9%
x264 [info]: ref P L0: 50.7% 11.0% 16.7% 6.4% 4.8% 3.5% 2.9% 1.8% 1.7% 0.6% 0.0%
x264 [info]: ref B L0: 75.1% 12.2% 5.4% 2.8% 1.9% 1.5% 0.8% 0.3%
x264 [info]: ref B L1: 93.4% 6.6%
x264 [info]: kb/s:4930.73

Скриншоты


_________________
Показать сообщения:    

Текущее время: Сегодня 16:23

Часовой пояс: GMT



Вы не можете начинать темы
Вы не можете отвечать на сообщения
Вы не можете редактировать свои сообщения
Вы не можете удалять свои сообщения
Вы не можете голосовать в опросах
Вы не можете прикреплять файлы к сообщениям
Вы не можете скачивать файлы