Важное объявление!
У Нас Все раздачи мультитрекерные, при нуле пиров в релизах, можете смело вставать на закачку!
 
Автор Сообщение

HUNTER

Стаж:
4 года 4 месяца
Сообщений:
56765

Репутация: 101

[+] [-]
Вне форума [Профиль] [ЛС]

Голые и дикие / Резня в Долине динозавров / Жестокий каннибал 2 / Амазонка / Nudo e selvaggio / A Baixada dos Dinosauros / Massacre in Dinosaur Valley / Amazonas / Cannibal Ferox 2
Страна: Италия, Бразилия
Студия: Doral Film / DMV
Жанр: приключения, exploitation
Год выпуска: 1985
Продолжительность: 01:42:04
Перевод: Профессиональный (многоголосый закадровый)
Cубтитры: нет
Оригинальная аудиодорожка: нет
Режиссер: Мишель Массимо Тарантини / Michele Massimo Tarantini (as Michael E. Lemick)
В ролях: Майкл Сопкив, Марта Андерсон, Сюзан Карвало
Описание: Археолог отправляется в Бразилию на поиски останков доисторических животных. Там он конфликтует с местными жителями и нанимает чартерный рейс, отправляющийся вглубь Амазонии. Естественно, самолет терпит катастрофу и падает в самых глухих джунглях. Наш герой, фотограф и две его модели, профессор со своей дочерью, а также пожилая пара оказываются отрезанными от цивилизованного общества. Они попадают в плен к каннибалам и становятся их рабами. В конце концов, им удается вырваться из кровожадных лап дикарей. Правда, не всем: а то было бы не так интересно. Но по пути домой им еще предстоит встретится с дикими зверями и бандой контрабандистов…
Много крови, извращений, типа сажания на кол, жесткости, насилия и секса. К сожалению, это последний фильм Майкла Сопкива. Английский дистрибьютор компания «VIPCO» решила изменить название картины на «Жестокий каннибал-2», якобы продолжение фильма 1981 года режиссера Умберто Ленци. Актер Самука, играющий главу дикарей, в действительности ел сырое сердце свиньи, когда якобы ел сердце другого человека. Большинство каннибалов играли бразильское военные. Некоторая часть музыки взята из фильма Ламберто Бавы «Blastfighter» (1984).
Доп. информация: Диск из собственной коллекции.
Бонусы: Коментарии, интервью, удалённые сцены, трейлеры.
Сэмпл: http://sendfile.su/1134911
Тип релиза: DVD9 (Custom)
Контейнер: DVD-Video
Видео: NTSC 16:9 (720x480) VBR Auto Pan&Scan
Аудио: Russian (Dolby AC3, 192 Kbps, 2 ch)
Аудио 2: English (Dolby AC3, 192 Kbps, 2 ch)
Аудио 3: English (Dolby AC3, 192 Kbps, 2 ch)

DVDInfo

Size: 7.92 Gb ( 8 303 560 KBytes ) - DVD-9
Enabled regions: 1, 2, 3, 4, 5, 6, 7, 8
VTS_01 :
Play Length: 00:01:02+00:00:26
Video: NTSC 4:3 (720x480) VBR
Audio:
English (Dolby AC3, 2 ch)
VTS_02 :
Play Length: 01:28:27+00:11:32+00:02:05
Video: NTSC 16:9 (720x480) VBR, Auto Pan&Scan
Audio:
Russian (Dolby AC3, 2 ch)
English (Dolby AC3, 2 ch)
English (Dolby AC3, 2 ch)
VTS_03 :
Play Length: 00:00:29
Video: NTSC 4:3 (720x480) VBR
Audio:
English (Dolby AC3, 2 ch)
VTS_04 :
Play Length: 00:25:48+00:06:49
Video: NTSC 4:3 (720x480) VBR
Audio:
English (Dolby AC3, 2 ch)
VTS_05 :
Play Length: 00:02:24
Video: NTSC 4:3 (720x480) VBR
Audio:
English (Dolby AC3, 2 ch)
VTS_06 :
Play Length: 00:03:04+00:02:16+00:03:43
Video: NTSC 16:9 (720x480) VBR, Auto Pan&Scan
Audio:
English (Dolby AC3, 2 ch)
VTS_07 :
Play Length: 00:18:48
Video: NTSC 4:3 (720x480) VBR
Audio:
Italiano (Dolby AC3, 2 ch)
Menu Video:
NTSC 16:9 (720x480) VBR
Auto Pan&Scan
Menu Subtitles:
Not specified
Menu English Language Unit :
Root Menu

MediaInfo

General
Complete name : K:\Nudo e selvaggio_1985\VIDEO_TS\VTS_02_1.VOB
Format : MPEG-PS
File size : 1 024 MiB
Duration : 9mn 57s
Overall bit rate : 14.4 Mbps
Video
ID : 224 (0xE0)
Format : MPEG Video
Format version : Version 2
Format profile : Main@Main
Format settings, BVOP : Yes
Format settings, Matrix : Default
Format settings, GOP : M=3, N=13
Duration : 9mn 57s
Bit rate : 13.5 Mbps
Maximum bit rate : 5 000 Kbps
Width : 720 pixels
Height : 480 pixels
Display aspect ratio : 2.40:1
Frame rate : 29.970 fps
Standard : NTSC
Color space : YUV
Chroma subsampling : 4:2:0
Bit depth : 8 bits
Scan type : Interlaced
Scan order : Top Field First
Compression mode : Lossy
Bits/(Pixel*Frame) : 1.306
Stream size : 963 MiB (94%)
Color primaries : BT.601 NTSC
Transfer characteristics : BT.601
Matrix coefficients : BT.601
Audio #1
ID : 189 (0xBD)-128 (0x80)
Format : AC-3
Format/Info : Audio Coding 3
Mode extension : CM (complete main)
Format settings, Endianness : Big
Muxing mode : DVD-Video
Duration : 9mn 57s
Bit rate mode : Constant
Bit rate : 192 Kbps
Channel(s) : 2 channels
Channel positions : Front: L R
Sampling rate : 48.0 KHz
Bit depth : 16 bits
Compression mode : Lossy
Stream size : 13.7 MiB (1%)
Audio #2
ID : 189 (0xBD)-129 (0x81)
Format : AC-3
Format/Info : Audio Coding 3
Mode extension : CM (complete main)
Format settings, Endianness : Big
Muxing mode : DVD-Video
Duration : 4s 928ms
Bit rate mode : Constant
Bit rate : 192 Kbps
Channel(s) : 2 channels
Channel positions : Front: L R
Sampling rate : 48.0 KHz
Bit depth : 16 bits
Compression mode : Lossy
Stream size : 116 KiB (0%)
Audio #3
ID : 189 (0xBD)-130 (0x82)
Format : AC-3
Format/Info : Audio Coding 3
Mode extension : CM (complete main)
Format settings, Endianness : Big
Muxing mode : DVD-Video
Duration : 4s 928ms
Bit rate mode : Constant
Bit rate : 192 Kbps
Channel(s) : 2 channels
Channel positions : Front: L R
Sampling rate : 48.0 KHz
Bit depth : 16 bits
Compression mode : Lossy
Stream size : 116 KiB (0%)
Menu

Постер и обложка

Скриншоты меню


_________________
Показать сообщения:    

Текущее время: Сегодня 19:13

Часовой пояс: GMT



Вы не можете начинать темы
Вы не можете отвечать на сообщения
Вы не можете редактировать свои сообщения
Вы не можете удалять свои сообщения
Вы не можете голосовать в опросах
Вы не можете прикреплять файлы к сообщениям
Вы не можете скачивать файлы