Важное объявление!
У Нас Все раздачи мультитрекерные, при нуле пиров в релизах, можете смело вставать на закачку!
 
Автор Сообщение

HUNTER

Стаж:
4 года 4 месяца
Сообщений:
56734

Репутация: 101

[+] [-]
Вне форума [Профиль] [ЛС]

Голодные игры: Сойка-пересмешница. Часть II / The Hunger Games: Mockingjay - Part 2
Страна: США, Германия
Студия: Color Force, Lionsgate, Studio Babelsberg
Жанр: фантастика, приключения
Год выпуска: 2015
Продолжительность: 02:16:57
Перевод: Профессиональный (дублированный) | iTunes
Оригинальная аудиодорожка: английская
Cубтитры: Русские, английские
Режиссер: Френсис Лоуренс / Francis Lawrence
В ролях: Дженнифер Лоуренс, Джош Хатчерсон, Лиам Хемсворт, Джулианна Мур, Элизабет Бэнкс, Вуди Харрельсон, Дональд Сазерленд, Джена Мэлоун, Стэнли Туччи, Филип Сеймур Хоффман, Сэм Клафлин, Тоби Джонс, Джеффри Райт, Натали Дормер
Описание: Китнисс Эвердин и своенравный Пит Мелларк пытаются выиграть гражданскую войну между самодержавным Капитолием и истерзанными войной районами Панема…

Тип релиза: BDRip 720p | L
Контейнер: MKV
Видео: MPEG-4 AVC Video ~5876 kbps 1280x534 / 23,976 fps / 2.40:1 / High Profile 4.1
Аудио:
Русский: 48 kHz, AC3 Dolby Digital, 3/2 (L,C,R,l,r) + LFE ch, ~384 kbps
Английский: 48 kHz, AC3 Dolby Digital, 3/2 (L,C,R,l,r) + LFE ch, ~640 kbps
Формат субтитров: softsub (SRT)

MediaInfo

Код:
Уникальный идентификатор                 : 238089501895786092717269902761450640589 (0xB31E5EBFD37995839FD6B4BA2ABD94CD)
Полное имя                               : E:\V.temp\The.Hunger.Games.Mockingjay.Part.2.2015.Blu-ray.1080p.AVC.Atmos.True-HD7.1-HDChina\The.Hunger.Games.Mockingjay.Part.2.2015.BluRay.720p.DD5.1.x264-L.mkv
Формат                                   : Matroska
Версия формата                           : Version 4 / Version 2
Размер файла                             : 6,60 Гбайт
Продолжительность                        : 2 ч. 16 м.
Общий поток                              : 6902 Кбит/сек
Название фильма                          : The.Hunger.Games.Mockingjay.Part.2.2015.BluRay.720p.DD5.1.x264-L
Дата кодирования                         : UTC 2016-03-21 20:00:35
Программа кодирования                    : mkvmerge v7.7.0 ('Six Voices') 32bit built on Feb 28 2015 23:23:00
Библиотека кодирования                   : libebml v1.3.1 + libmatroska v1.4.2
Обложка                                  : Yes
Attachments                              : cover.png
Видео
Идентификатор                            : 1
Формат                                   : AVC
Формат/Информация                        : Advanced Video Codec
Профиль формата                          : High@L4.1
Параметр CABAC формата                   : Да
Параметр ReFrames формата                : 12 кадров
Идентификатор кодека                     : V_MPEG4/ISO/AVC
Продолжительность                        : 2 ч. 16 м.
Битрейт                                  : 5875 Кбит/сек
Ширина                                   : 1280 пикселей
Высота                                   : 534 пикселя
Соотношение сторон                       : 2,40:1
Режим частоты кадров                     : Постоянный
Частота кадров                           : 23,976 (24000/1001) кадра/сек
Цветовое пространство                    : YUV
Субдискретизация насыщенности            : 4:2:0
Битовая глубина                          : 8 бит
Тип развёртки                            : Прогрессивная
Бит/(Пиксели*Кадры)                      : 0.359
Размер потока                            : 5,62 Гбайт (85%)
Заголовок                                : The.Hunger.Games.Mockingjay.Part.2.2015.BluRay.720p.DD5.1.x264-L
Библиотека кодирования                   : x264 core 148 r2638 7599210
Настройки программы                      : cabac=1 / ref=12 / deblock=1:-2:-1 / analyse=0x3:0x133 / me=umh / subme=10 / psy=1 / psy_rd=1.05:0.10 / mixed_ref=1 / me_range=32 / chroma_me=1 / trellis=2 / 8x8dct=1 / cqm=0 / deadzone=21,11 / fast_pskip=0 / chroma_qp_offset=-4 / threads=6 / lookahead_threads=1 / sliced_threads=0 / nr=0 / decimate=1 / interlaced=0 / bluray_compat=0 / constrained_intra=0 / bframes=7 / b_pyramid=2 / b_adapt=2 / b_bias=0 / direct=1 / weightb=1 / open_gop=0 / weightp=2 / keyint=230 / keyint_min=21 / scenecut=40 / intra_refresh=0 / rc_lookahead=60 / rc=crf / mbtree=0 / crf=14.0 / qcomp=0.70 / qpmin=0 / qpmax=69 / qpstep=4 / vbv_maxrate=50000 / vbv_bufsize=60000 / crf_max=0.0 / nal_hrd=none / filler=0 / ip_ratio=1.35 / pb_ratio=1.25 / aq=2:0.90
Язык                                     : English
Default                                  : Да
Forced                                   : Нет
Аудио #1
Идентификатор                            : 2
Формат                                   : AC-3
Формат/Информация                        : Audio Coding 3
Расширение режима                        : CM (complete main)
Параметр Endianness формата              : Big
Идентификатор кодека                     : A_AC3
Продолжительность                        : 2 ч. 16 м.
Вид битрейта                             : Постоянный
Битрейт                                  : 384 Кбит/сек
Каналы                                   : 6 каналов
Расположение каналов                     : Front: L C R, Side: L R, LFE
Частота                                  : 48,0 КГц
Частота кадров                           : 31,250 кадров/сек (1536 spf)
Метод сжатия                             : С потерями
Размер потока                            : 376 Мбайт (6%)
Заголовок                                : DD5.1@384kbps
Язык                                     : Russian
Default                                  : Да
Forced                                   : Нет
Аудио #2
Идентификатор                            : 3
Формат                                   : AC-3
Формат/Информация                        : Audio Coding 3
Расширение режима                        : CM (complete main)
Параметр Endianness формата              : Big
Идентификатор кодека                     : A_AC3
Продолжительность                        : 2 ч. 16 м.
Вид битрейта                             : Постоянный
Битрейт                                  : 640 Кбит/сек
Каналы                                   : 6 каналов
Расположение каналов                     : Front: L C R, Side: L R, LFE
Частота                                  : 48,0 КГц
Частота кадров                           : 31,250 кадров/сек (1536 spf)
Метод сжатия                             : С потерями
Размер потока                            : 627 Мбайт (9%)
Заголовок                                : DD5.1@640kbps
Язык                                     : English
Default                                  : Нет
Forced                                   : Нет
Текст #1
Идентификатор                            : 4
Формат                                   : UTF-8
Идентификатор кодека                     : S_TEXT/UTF8
Идентификатор кодека/Информация          : UTF-8 Plain Text
Продолжительность                        : 2 ч. 4 м.
Битрейт                                  : 81 бит/сек
Count of elements                        : 1350
Размер потока                            : 74,0 Кбайт (0%)
Язык                                     : Russian
Default                                  : Да
Forced                                   : Нет
Текст #2
Идентификатор                            : 5
Формат                                   : UTF-8
Идентификатор кодека                     : S_TEXT/UTF8
Идентификатор кодека/Информация          : UTF-8 Plain Text
Продолжительность                        : 2 ч. 4 м.
Битрейт                                  : 49 бит/сек
Count of elements                        : 1425
Размер потока                            : 45,0 Кбайт (0%)
Язык                                     : English
Default                                  : Нет
Forced                                   : Нет
Меню
00:00:00.000                             : en:00:00:00.000
00:07:39.042                             : en:00:07:39.042
00:16:49.217                             : en:00:16:49.217
00:24:46.985                             : en:00:24:46.985
00:31:59.960                             : en:00:31:59.960
00:37:11.688                             : en:00:37:11.688
00:46:42.717                             : en:00:46:42.717
00:55:00.881                             : en:00:55:00.881
01:02:46.429                             : en:01:02:46.429
01:09:27.497                             : en:01:09:27.497
01:18:42.968                             : en:01:18:42.968
01:29:51.136                             : en:01:29:51.136
01:37:08.239                             : en:01:37:08.239
01:49:01.785                             : en:01:49:01.785
01:56:55.759                             : en:01:56:55.759
02:03:33.239                             : en:02:03:33.239
Код:
x264 [info]: frame I:1472  Avg QP: 9.75  size:131427  PSNR Mean Y:53.06 U:57.39 V:57.02 Avg:54.04 Global:53.18
x264 [info]: frame P:39750 Avg QP:11.63  size: 61203  PSNR Mean Y:51.11 U:55.00 V:54.67 Avg:52.02 Global:50.92
x264 [info]: frame B:155795 Avg QP:13.31  size: 21879  PSNR Mean Y:50.04 U:54.02 V:53.67 Avg:50.95 Global:49.93
x264 [info]: consecutive B-frames:  1.5%  1.3%  5.7% 19.0% 19.2% 31.9% 14.4%  6.9%

Скриншоты



_________________
Показать сообщения:    

Текущее время: Сегодня 09:52

Часовой пояс: GMT



Вы не можете начинать темы
Вы не можете отвечать на сообщения
Вы не можете редактировать свои сообщения
Вы не можете удалять свои сообщения
Вы не можете голосовать в опросах
Вы не можете прикреплять файлы к сообщениям
Вы не можете скачивать файлы