Важное объявление!
У Нас Все раздачи мультитрекерные, при нуле пиров в релизах, можете смело вставать на закачку!
 
Автор Сообщение

HUNTER

Стаж:
4 года 4 месяца
Сообщений:
56733

Репутация: 101

[+] [-]
Вне форума [Профиль] [ЛС]

Голодные игры | The Hunger Games-Год выпуска: 2012
Страна: США, Lionsgate - Ludas Productions - Larger Than Life Productions - Color Force
Жанр: Фантастика, боевик, триллер, драма
Продолжительность: 02:22:33
Перевод: Профессиональный (полное дублирование)
Субтитры: Русские, Английские-В ролях: Дженнифер Лоуренс, Лиам Хемсворт, Джош Хатчерсон, Элизабет Бэнкс, Вуди Харрельсон, Стенли Туччи, Ленни Кравиц, Уэс Бентли, Дональд Сазерленд, Уиллоу Шилдс, Тоби Джонс, Паула Малкомсон
Режиссёр: Гэри Росс-Описание: Будущее. Деспотичное государство ежегодно устраивает показательные игры на выживание, за которыми в прямом эфире следит весь мир. Жребий участвовать в Играх выпадает юной Китнисс и тайно влюбленному в нее Питу. Они знакомы с детства, но теперь должны стать врагами. Ведь по нерушимому закону Голодных игр победить может только один из 24 участников. Судьям не важно кто выиграет, главное — зрелище. И на этот раз зрелище будет незабываемым.-Качество: BDRip
Формат: MKV
Видео кодек: H.264x
Аудио кодек: AC-3
Видео: 1920x800 (2,40:1), 23.976 fps, 6897 kbps
Аудио #1: Русский / AC-3 / 5.1 / 448 kbps, 48,0 КГц (Дубляж BD RUS)
Аудио #2: Английский / AC-3 / 5.1 / 448 kbps, 48,0 КГц (Оригинал)-

MediaInfo

Общее
Уникальный идентификатор : 227909025281940555276384657384779833124 (0xAB75AE7FDF070F3483160E7CACB85F24)
Полное имя : The.Hunger.Games.2012.BDRip.1080p.Rus.Eng.mkv
Формат : Matroska
Версия формата : Version 2
Размер файла : 7,76 Гбайт
Продолжительность : 2 ч. 22 м.
Общий поток : 7792 Кбит/сек
Название фильма : Голодные игры / The Hunger Games (2012)
Дата кодирования : UTC 2012-08-24 04:07:55
Программа кодирования : mkvmerge v5.7.0 ('The Whirlwind') built on Jul 8 2012 20:08:51
Библиотека кодирования : libebml v1.2.3 + libmatroska v1.3.0
Видео
Идентификатор : 1
Формат : AVC
Формат/Информация : Advanced Video Codec
Профиль формата : [url=mailto:High@L4.1]High@L4.1[/url]
Параметр CABAC формата : Да
Параметр ReFrames формата : 5 кадров
Идентификатор кодека : V_MPEG4/ISO/AVC
Продолжительность : 2 ч. 22 м.
Битрейт : 6897 Кбит/сек
Ширина : 1920 пикселей
Высота : 800 пикселей
Соотношение сторон : 2,40:1
Частота кадров : 23,976 кадра/сек
Цветовое пространство : YUV
Субдискретизация насыщенности : 4:2:0
Битовая глубина : 8 бит
Тип развёртки : Прогрессивная
Бит/(Пиксели*Кадры) : 0.187
Размер потока : 6,71 Гбайт (87%)
Заголовок : Release by AlexKa
Библиотека кодирования : x264 core 125 r2208 d9d2288
Настройки программы : cabac=1 / ref=5 / deblock=1:0:0 / analyse=0x3:0x133 / me=umh / subme=10 / psy=1 / psy_rd=1.00:0.10 / mixed_ref=1 / me_range=32 / chroma_me=1 / trellis=2 / 8x8dct=1 / cqm=0 / deadzone=21,11 / fast_pskip=0 / chroma_qp_offset=-3 / threads=12 / lookahead_threads=2 / sliced_threads=0 / nr=0 / decimate=0 / interlaced=0 / bluray_compat=0 / constrained_intra=0 / bframes=5 / b_pyramid=2 / b_adapt=2 / b_bias=0 / direct=3 / weightb=1 / open_gop=0 / weightp=2 / keyint=240 / keyint_min=23 / scenecut=40 / intra_refresh=0 / rc=2pass / mbtree=0 / bitrate=6897 / ratetol=1.0 / qcomp=0.60 / qpmin=0 / qpmax=69 / qpstep=4 / cplxblur=20.0 / qblur=0.5 / ip_ratio=1.40 / pb_ratio=1.30 / aq=1:0.80
Язык : English
Аудио #1
Идентификатор : 2
Формат : AC-3
Формат/Информация : Audio Coding 3
Расширение режима : CM (complete main)
Идентификатор кодека : A_AC3
Продолжительность : 2 ч. 22 м.
Вид битрейта : Постоянный
Битрейт : 448 Кбит/сек
Каналы : 6 каналов
Расположение каналов : Front: L C R, Side: L R, LFE
Частота : 48,0 КГц
Битовая глубина : 16 бит
Метод сжатия : С потерями
Размер потока : 457 Мбайт (6%)
Заголовок : Rus
Язык : Russian
Аудио #2
Идентификатор : 3
Формат : AC-3
Формат/Информация : Audio Coding 3
Расширение режима : CM (complete main)
Идентификатор кодека : A_AC3
Продолжительность : 2 ч. 22 м.
Вид битрейта : Постоянный
Битрейт : 448 Кбит/сек
Каналы : 6 каналов
Расположение каналов : Front: L C R, Side: L R, LFE
Частота : 48,0 КГц
Битовая глубина : 16 бит
Метод сжатия : С потерями
Размер потока : 457 Мбайт (6%)
Заголовок : Eng
Язык : English
Текст #1
Идентификатор : 4
Формат : UTF-8
Идентификатор кодека : S_TEXT/UTF8
Идентификатор кодека/Информация : UTF-8 Plain Text
Заголовок : Rus
Язык : Russian
Текст #2
Идентификатор : 5
Формат : UTF-8
Идентификатор кодека : S_TEXT/UTF8
Идентификатор кодека/Информация : UTF-8 Plain Text
Заголовок : Eng
Язык : English
Меню
00:00:00.000 : :Chapter 01
00:10:05.813 : :Chapter 02
00:18:00.078 : :Chapter 03
00:25:05.879 : :Chapter 04
00:31:12.661 : :Chapter 05
00:43:28.564 : :Chapter 06
00:50:38.702 : :Chapter 07
00:56:58.915 : :Chapter 08
01:06:57.763 : :Chapter 09
01:15:58.970 : :Chapter 10
01:22:06.046 : :Chapter 11
01:29:00.417 : :Chapter 12
01:38:00.749 : :Chapter 13
01:43:19.192 : :Chapter 14
01:57:56.611 : :Chapter 15
02:09:26.550 : :Chapter 16
02:22:33.127 : :Chapter 17
-

Скриншоты


_________________
Показать сообщения:    

Текущее время: Сегодня 02:38

Часовой пояс: GMT



Вы не можете начинать темы
Вы не можете отвечать на сообщения
Вы не можете редактировать свои сообщения
Вы не можете удалять свои сообщения
Вы не можете голосовать в опросах
Вы не можете прикреплять файлы к сообщениям
Вы не можете скачивать файлы