Важное объявление!
У Нас Все раздачи мультитрекерные, при нуле пиров в релизах, можете смело вставать на закачку!
 
Автор Сообщение

HUNTER

Стаж:
4 года 4 месяца
Сообщений:
56839

Репутация: 101

[+] [-]
Вне форума [Профиль] [ЛС]

Голод / The Hunger
«Nothing Human Loves Forever»
Год выпуска: 1983
Страна: Великобритания
Производство: Metro-Goldwyn-Mayer (MGM), Peerford Ltd.
Жанр: Ужасы, триллер, драма, мелодрама
Продолжительность: 01:36:31
Перевод 1: Авторский (одноголосый закадровый) | Михалёв
Перевод 2: Профессиональный (многоголосый закадровый)
Перевод 3: Профессиональный (двухголосый закадровый)
Оригинальная аудиодорожка: Английский
Субтитры: Русские, английские
Режиссёр: Тони Скотт
В ролях: Катрин Денёв, Сьюзен Сарандон, Дэвид Боуи, Клифф Де Янг, Бет Элерс, Дэн Хедайя, Руфус Коллинз, Сюзэнн Бертиш, Джеймс Обри, Энн Магнусо и др.
Описание: История о холодной и прекрасной вампирше Мириэм, которая блуждает в потёмках модных ночных клубов Манхэттена в поисках свежей крови. Когда её верный напарник Джон внезапно начинает необъяснимым образом стареть, к нему на помощь является обворожительная женщина-учёный, которая становится частью ужасного треугольника, сотканного из желания, секса и крови.


SbR
Сэмпл
Качество: BDRip 1080p
Формат: MKV
Видео: MPEG-4 AVC: ~18394 kbps / 1920x804 / 23.976 fps / 2.40:1
Аудио: Russian: AC3 / 2.0 / 48 kHz / 192 kbps | Михалёв
Аудио: Russian: AC3 / 2.0 / 48 kHz / 192 kbps | MVO
Аудио: Russian: AC3 / 2.0 / 48 kHz / 192 kbps | DVO
Аудио: English: FLAC / 2.0 / 48 kHz / 707 kbps | Оригинальный
Аудио: English: AAC / 2.0 / 48 kHz / 62 kbps | Комментарии

MediaInfoXP

GeneralUnique ID : 207920805380654132203342963204445554589 (0x9C6C172BF328566C8473BAA918CDC79D)Complete name : F:\The.Hunger.1983.1080p.BluRay.3xRus.Eng.x264-SbR.mkvFormat : MatroskaFormat version : Version 4 / Version 2File size : 13.0 GiBDuration : 1h 36mnOverall bit rate mode : VariableOverall bit rate : 19.3 MbpsEncoded date : UTC 2015-09-16 09:23:22Writing application : mkvmerge v8.3.0 ('Over the Horizon') 64bitWriting library : libebml v1.3.1 + libmatroska v1.4.2Attachements : cover.jpgDURATION : 01:33:46.787000000NUMBER_OF_FRAMES : 745NUMBER_OF_BYTES : 25629_STATISTICS_WRITING_APP : mkvmerge v8.3.0 ('Over the Horizon') 64bit_STATISTICS_WRITING_DATE_UTC : 2015-09-16 09:23:22_STATISTICS_TAGS : BPS DURATION NUMBER_OF_FRAMES NUMBER_OF_BYTES
VideoID : 1Format : AVCFormat/Info : Advanced Video CodecFormat profile : High@L4.1Format settings, CABAC : YesFormat settings, ReFrames : 5 framesCodec ID : V_MPEG4/ISO/AVCDuration : 1h 36mnWidth : 1 920 pixelsHeight : 804 pixelsDisplay aspect ratio : 2.40:1Frame rate mode : ConstantFrame rate : 23.976 fpsColor space : YUVChroma subsampling : 4:2:0Bit depth : 8 bitsScan type : ProgressiveWriting library : x264 core 146 r0+2586 e393126 t_mod_Custom [8-bit@all X86_64]Encoding settings : cabac=1 / ref=5 / deblock=1:-3:-3 / analyse=0x3:0x133 / me=umh / subme=10 / psy=1 / fade_compensate=0.00 / psy_rd=1.00:0.15 / mixed_ref=1 / me_range=24 / chroma_me=1 / trellis=2 / 8x8dct=1 / cqm=0 / deadzone=21,11 / fast_pskip=0 / chroma_qp_offset=-3 / threads=6 / lookahead_threads=1 / sliced_threads=0 / nr=0 / decimate=1 / interlaced=0 / bluray_compat=0 / constrained_intra=0 / fgo=0 / bframes=8 / b_pyramid=2 / b_adapt=2 / b_bias=0 / direct=3 / weightb=1 / open_gop=0 / weightp=2 / keyint=250 / keyint_min=23 / scenecut=40 / intra_refresh=0 / rc_lookahead=60 / rc=crf / mbtree=0 / crf=19.3000 / qcomp=0.70 / qpmin=0:0:0 / qpmax=69:69:69 / qpstep=4 / vbv_maxrate=62500 / vbv_bufsize=78125 / crf_max=0.0 / nal_hrd=none / filler=0 / ip_ratio=1.30 / pb_ratio=1.20 / aq=3:0.80 / aq-sensitivity=10.00 / aq-factor=1.00:1.00:1.00 / aq2=1:0.60 / aq2-sensitivity=15.00 / aq2-factor=1.00:1.00:1.00 / aq3=3:[0.45:0.45]:[0.45:0.45]:[0.45:0.45]:[0.45:0.45] / aq3-sensitivity=10.00 / aq3-factor=[1.00:1.00]:[1.00:1.00]:[1.00:1.00] / aq3-boundary=192:64:24Language : EnglishDefault : YesForced : NoColor range : LimitedColor primaries : BT.709Transfer characteristics : BT.709Matrix coefficients : BT.709DURATION : 01:36:30.785000000NUMBER_OF_FRAMES : 138840NUMBER_OF_BYTES : 13314859694_STATISTICS_WRITING_APP : mkvmerge v8.3.0 ('Over the Horizon') 64bit_STATISTICS_WRITING_DATE_UTC : 2015-09-16 09:23:22_STATISTICS_TAGS : BPS DURATION NUMBER_OF_FRAMES NUMBER_OF_BYTES
Audio #1ID : 2Format : AC-3Format/Info : Audio Coding 3Mode extension : CM (complete main)Format settings, Endianness : BigCodec ID : A_AC3Duration : 1h 36mnBit rate mode : ConstantBit rate : 192 KbpsChannel(s) : 2 channelsChannel positions : Front: L RSampling rate : 48.0 KHzCompression mode : LossyStream size : 133 MiB (1%)Title : Одноголосый закадровый А.МихалёвLanguage : RussianDefault : YesForced : No
Audio #2ID : 3Format : AC-3Format/Info : Audio Coding 3Mode extension : CM (complete main)Format settings, Endianness : BigCodec ID : A_AC3Duration : 1h 36mnBit rate mode : ConstantBit rate : 192 KbpsChannel(s) : 2 channelsChannel positions : Front: L RSampling rate : 48.0 KHzCompression mode : LossyStream size : 133 MiB (1%)Title : Многоголосый закадровыйLanguage : RussianDefault : NoForced : No
Audio #3ID : 4Format : AC-3Format/Info : Audio Coding 3Mode extension : CM (complete main)Format settings, Endianness : BigCodec ID : A_AC3Duration : 1h 36mnBit rate mode : ConstantBit rate : 192 KbpsChannel(s) : 2 channelsChannel positions : Front: L RSampling rate : 48.0 KHzCompression mode : LossyStream size : 133 MiB (1%)Title : ДвухголосыйзакадровыйLanguage : RussianDefault : NoForced : No
Audio #4ID : 5Format : FLACFormat/Info : Free Lossless Audio CodecCodec ID : A_FLACDuration : 1h 36mnBit rate mode : VariableChannel(s) : 2 channelsSampling rate : 48.0 KHzBit depth : 16 bitsWriting library : libFLAC 1.2.1 (UTC 2007-09-17)Language : EnglishDefault : NoForced : No
Audio #5ID : 6Format : AACFormat/Info : Advanced Audio CodecFormat profile : LCCodec ID : A_AACDuration : 1h 36mnChannel(s) : 2 channelsChannel positions : Front: L RSampling rate : 48.0 KHzCompression mode : LossyDelay relative to video : 9msTitle : Commentary by Director Tony ScottLanguage : EnglishDefault : NoForced : No
Text #1ID : 7Format : UTF-8Codec ID : S_TEXT/UTF8Codec ID/Info : UTF-8 Plain TextLanguage : RussianDefault : NoForced : No
Text #2ID : 8Format : UTF-8Codec ID : S_TEXT/UTF8Codec ID/Info : UTF-8 Plain TextLanguage : EnglishDefault : NoForced : No
Text #3ID : 9Format : UTF-8Codec ID : S_TEXT/UTF8Codec ID/Info : UTF-8 Plain TextTitle : SDHLanguage : EnglishDefault : NoForced : No
Menu00:00:00.000 : en:00:00:00.00000:03:10.899 : en:00:03:10.89900:06:30.098 : en:00:06:30.09800:12:29.374 : en:00:12:29.37400:16:20.938 : en:00:16:20.93800:21:09.852 : en:00:21:09.85200:27:52.296 : en:00:27:52.29600:32:26.153 : en:00:32:26.15300:38:40.485 : en:00:38:40.48500:44:49.896 : en:00:44:49.89600:48:23.776 : en:00:48:23.77600:52:23.223 : en:00:52:23.22300:56:13.328 : en:00:56:13.32801:00:05.602 : en:01:00:05.60201:03:30.432 : en:01:03:30.43201:08:30.148 : en:01:08:30.14801:10:41.904 : en:01:10:41.90401:13:53.512 : en:01:13:53.51201:16:47.228 : en:01:16:47.22801:21:12.034 : en:01:21:12.03401:24:44.121 : en:01:24:44.12101:29:48.466 : en:01:29:48.46601:33:13.713 : en:01:33:13.713

Скриншот с названием фильма

Скриншоты


_________________
Показать сообщения:    

Текущее время: Сегодня 00:42

Часовой пояс: GMT



Вы не можете начинать темы
Вы не можете отвечать на сообщения
Вы не можете редактировать свои сообщения
Вы не можете удалять свои сообщения
Вы не можете голосовать в опросах
Вы не можете прикреплять файлы к сообщениям
Вы не можете скачивать файлы