Важное объявление!
У Нас Все раздачи мультитрекерные, при нуле пиров в релизах, можете смело вставать на закачку!
 
Автор Сообщение

HUNTER

Стаж:
4 года 4 месяца
Сообщений:
56798

Репутация: 101

[+] [-]
Вне форума [Профиль] [ЛС]

Головоломка / Inside Out
Страна: США
Жанр: полнометражный мультфильм, детский, семейный, фантастика, приключения
Продолжительность: 01:34:50
Год выпуска: 2015
Перевод: Профессиональный (дублированный) BD CEE
Субтитры: Отсутствуют
Оригинальная аудиодорожка: нет
Режиссёры: Пит Доктер / Pete Docter, Роналдо Дель Кармен / Ronnie Del Carmen
Роли озвучивали: Дайан Лэйн, Эми Пехлер, Кайл Маклахлен, Минди Калинг, Билли Хадер, Филлис Смит, Льюис Блэк, Джесс Харнелл, Тереза Ганзел, Карлос Алазраки, Ларэйн Ньюман, Лори Алан, Пола Паундстоун, Боб Берген, Джон Циган, Дэнни Манн, Шерри Линн, Жан Рэбсон, Микки Макгоун, и др.
Роли дублировали: Олеся Железняк, Владимир Епифанцев, Максим Виторган, Ксения Собчак, Дмитрий Нагиев, Виктор Григорьев, и др.
Аннотация: Райли - обычная среднестатистическая одиннадцатилетняя американская школьница. Как и у многих из нас, её поведение определяют пять базовых эмоций: Радость, Печаль, Страх, Гнев и Брезгливость. Эмоции живут в сознании девочки, и каждый день помогают ей справляться с возникающими трудностями по мере их поступления, и руководят всеми её поступками. До поры до времени эмоции живут дружно, но вдруг Райли с родителями переезжает из привычного провинциального уюта - в огромный, шумный, многолюдный, безликий серый город... Впервые за всю жизнь, мир обрушился вокруг девочки. Мир обрушился и в её сознании, девочка погружается в уныние... Каждая из эмоций считает, что именно она лучше прочих знает, что нужно делать в этой непростой ситуации, и в голове у девочки наступает полная неразбериха, и девочка впадает в глубокую депрессию... Чтобы наладить жизнь на новом месте, освоиться в новой школе, подружиться с новыми одноклассниками, эмоциям Райли предстоит приложить немало усилий...

Качество: WEB-DLRip
Формат: AVI
Video: 720x400 (1.80:1), 23.976 fps, XviD build 50 ~1670 kbps avg, 0.24 bit/pixel
Audio: 48 kHz, AC3 Dolby Digital, 3/2 (L,C,R,l,r) + LFE ch, ~448 kbps

Подробные технические данные

AviInfo
File: Inside_Out_2015_WEB-DLRip_[rutracker.org].aviFilesize: 1443.51 Mb ( 1 513 629 696 bytes )Play length: 01:34:50.393 (136433 frames)Subtitles: Not PresentVideo: 720x400 (1.80:1), 23.976 fps, XviD build 50 ~1670 kbps avg, 0.24 bit/pixelAudio: 48 kHz, AC3 Dolby Digital, 3/2 (L,C,R,l,r) + LFE ch, ~448 kbps

MediaInfo

ОбщееПолное имя : V:\Inside_Out_2015_WEB-DLRip_[rutracker.org].aviФормат : AVIФормат/Информация : Audio Video InterleaveРазмер файла : 1,41 ГбайтПродолжительность : 1 ч. 34 м.Общий поток : 2128 Кбит/секПрограмма кодирования : VirtualDubModRus 1.5.10.2 (build 2542/release)Библиотека кодирования : VirtualDubMod build 2542/release
ВидеоИдентификатор : 0Формат : MPEG-4 VisualПрофиль формата : Advanced Simple@L5Параметр BVOP формата : 2Параметр QPel формата : НетПараметр GMC формата : Без точки переходаПараметр матрицы формата : Default (MPEG)Идентификатор кодека : DX50Идентификатор кодека/Подсказка : DivX 5Продолжительность : 1 ч. 34 м.Битрейт : 1671 Кбит/секШирина : 720 пикселейВысота : 400 пикселейСоотношение сторон : 16:9Частота кадров : 23,976 кадра/секЦветовое пространство : YUVСубдискретизация насыщенности : 4:2:0Битовая глубина : 8 битТип развёртки : ПрогрессивнаяМетод сжатия : С потерямиБит/(Пиксели*Кадры) : 0.242Размер потока : 1,11 Гбайт (79%)Библиотека кодирования : XviD 1.2.1 (UTC 2008-12-04)
АудиоИдентификатор : 1Формат : AC-3Формат/Информация : Audio Coding 3Расширение режима : CM (complete main)Параметр Endianness формата : BigИдентификатор кодека : 2000Продолжительность : 1 ч. 34 м.Вид битрейта : ПостоянныйБитрейт : 448 Кбит/секКаналы : 6 каналовРасположение каналов : Front: L C R, Side: L R, LFEЧастота : 48,0 КГцБитовая глубина : 16 битМетод сжатия : С потерямиЗадержка видео : 4 мс.Размер потока : 304 Мбайт (21%)Выравнивание : Разделение по промежуткамПродолжительность промежутка : 42 мс. (1,00 видеокадр)Время предзагрузки промежутка : 500 мс.
Время раздачи - по возможности.

_________________
Показать сообщения:    

Текущее время: Сегодня 20:46

Часовой пояс: GMT



Вы не можете начинать темы
Вы не можете отвечать на сообщения
Вы не можете редактировать свои сообщения
Вы не можете удалять свои сообщения
Вы не можете голосовать в опросах
Вы не можете прикреплять файлы к сообщениям
Вы не можете скачивать файлы