Важное объявление!
У Нас Все раздачи мультитрекерные, при нуле пиров в релизах, можете смело вставать на закачку!
 
Автор Сообщение

HUNTER

Стаж:
4 года 4 месяца
Сообщений:
56842

Репутация: 101

[+] [-]
Вне форума [Профиль] [ЛС]

Головоломка / Inside Out
Страна: США
Жанр: Мультипликация
Продолжительность: 01:34:50
Год выпуска: 2015
Перевод: Профессиональный (дублированный) [iTunes]
Русские субтитры: есть-Режиссёр: Пит Доктер / Pete Docter, Роналдо Дель Кармен / Ronaldo Del Carmen
Роли озвучивали: Эми Полер (Joy), Дайан Лэйн (Mom), Кайл МакЛоклен (Dad), Билл Хейдер (Fear), Минди Кейлинг (Disgust), Филлис Смит (Sadness), Лори Алан (Mother's Sadness), Льюис Блэк (Anger), Кейтлин Диас (Riley), Пэрис Ван Дайк (Meg)-Описание: Райли - обычная 11-летняя школьница, и, как у каждого из нас, ее поведение определяют пять базовых эмоций: Радость, Печаль, Страх, Гнев и Брезгливость. Эмоции живут в сознании девочки и каждый день помогают ей справляться с проблемами, руководя всеми ее поступками. До поры до времени эмоции живут дружно, но вдруг оказывается, что Райли и ее родителям предстоит переезд из небольшого уютного городка в шумный и людный мегаполис. Каждая из эмоций считает, что именно она лучше прочих знает, что нужно делать в этой непростой ситуации, и в голове у девочки наступает полная неразбериха. Чтобы наладить жизнь в большом городе, освоиться в новой школе и подружиться с одноклассниками, эмоциям Райли предстоит снова научиться работать сообща.-Качество: WEB-DL 1080p
Формат: MKV
Видео: AVC, 1920x1080 (16:9), 23.976 fps, 4 944 Kbps (0.099 bit/pixel)
Аудио 1: AC-3, 48.0 KHz, 6 ch, 384 Kbps, CBR (Russian) [iTunes]
Аудио 2: AC-3, 48.0 KHz, 6 ch, 384 Kbps, CBR (English)
Субтитры: Russian, English
Семпл: Забираем тут

Подробные технические данные

GeneralUnique ID : 220650009538373397651013805349292008322 (0xA5FFA5642EF71B35BEEC6F34AAF8E382)Complete name : Inside Out 2015 WEB-DL 1080p.mkvFormat : MatroskaFormat version : Version 4 / Version 2File size : 3.86 GiBDuration : 1h 34mnOverall bit rate : 5 828 KbpsEncoded date : UTC 2015-10-13 07:06:01Writing application : mkvmerge v8.3.0 ('Over the Horizon') 64bitWriting library : libebml v1.3.1 + libmatroska v1.4.2DURATION : 01:26:48.584000000NUMBER_OF_FRAMES : 1255NUMBER_OF_BYTES : 74788_STATISTICS_WRITING_APP : mkvmerge v8.3.0 ('Over the Horizon') 64bit_STATISTICS_WRITING_DATE_UT : 2015-10-13 07:06:01_STATISTICS_TAGS : BPS DURATION NUMBER_OF_FRAMES NUMBER_OF_BYTES
VideoID : 1Format : AVCFormat/Info : Advanced Video CodecFormat profile : High@L4Format settings, CABAC : YesFormat settings, ReFrames : 4 framesCodec ID : V_MPEG4/ISO/AVCDuration : 1h 34mnBit rate : 4 944 KbpsWidth : 1 920 pixelsHeight : 1 080 pixelsDisplay aspect ratio : 16:9Frame rate mode : ConstantFrame rate : 23.976 fpsColor space : YUVChroma subsampling : 4:2:0Bit depth : 8 bitsScan type : ProgressiveBits/(Pixel*Frame) : 0.099Stream size : 3.28 GiB (85%)Language : EnglishDefault : YesForced : NoColor range : LimitedColor primaries : BT.709Transfer characteristics : BT.709Matrix coefficients : BT.709
Audio #1ID : 2Format : AC-3Format/Info : Audio Coding 3Mode extension : CM (complete main)Format settings, Endianness : BigCodec ID : A_AC3Duration : 1h 34mnBit rate mode : ConstantBit rate : 384 KbpsChannel(s) : 6 channelsChannel positions : Front: L C R, Side: L R, LFESampling rate : 48.0 KHzCompression mode : LossyStream size : 260 MiB (7%)Language : RussianDefault : YesForced : No
Audio #2ID : 3Format : AC-3Format/Info : Audio Coding 3Mode extension : CM (complete main)Format settings, Endianness : BigCodec ID : A_AC3Duration : 1h 34mnBit rate mode : ConstantBit rate : 384 KbpsChannel(s) : 6 channelsChannel positions : Front: L C R, Side: L R, LFESampling rate : 48.0 KHzCompression mode : LossyStream size : 260 MiB (7%)Language : EnglishDefault : NoForced : No
Text #1ID : 4Format : UTF-8Codec ID : S_TEXT/UTF8Codec ID/Info : UTF-8 Plain TextLanguage : RussianDefault : NoForced : No
Text #2ID : 5Format : UTF-8Codec ID : S_TEXT/UTF8Codec ID/Info : UTF-8 Plain TextLanguage : EnglishDefault : NoForced : No
Menu00:00:00.000 : en:100:07:22.000 : en:200:11:36.000 : en:300:15:46.000 : en:400:20:02.000 : en:500:25:21.000 : en:600:26:47.000 : en:700:30:07.000 : en:800:34:45.000 : en:900:36:02.000 : en:1000:37:45.000 : en:1100:41:27.000 : en:1200:43:57.000 : en:1300:45:19.000 : en:1400:46:51.000 : en:1500:50:02.000 : en:1600:51:34.000 : en:1700:56:12.000 : en:1801:00:03.000 : en:1901:01:17.000 : en:2001:03:50.000 : en:2101:06:27.000 : en:2201:11:15.000 : en:2301:13:40.000 : en:2401:15:38.000 : en:2501:19:58.000 : en:2601:23:57.000 : en:2701:26:17.000 : en:28

Скриншоты



_________________
Показать сообщения:    

Текущее время: Сегодня 14:57

Часовой пояс: GMT



Вы не можете начинать темы
Вы не можете отвечать на сообщения
Вы не можете редактировать свои сообщения
Вы не можете удалять свои сообщения
Вы не можете голосовать в опросах
Вы не можете прикреплять файлы к сообщениям
Вы не можете скачивать файлы