Важное объявление!
У Нас Все раздачи мультитрекерные, при нуле пиров в релизах, можете смело вставать на закачку!
 
Автор Сообщение

HUNTER

Стаж:
4 года 4 месяца
Сообщений:
56822

Репутация: 101

[+] [-]
Вне форума [Профиль] [ЛС]

Голая добыча / The Naked Prey
-Страна: ЮАР, США
Жанр: приключения, драма
Год выпуска: 1965
Продолжительность: 01:35:30-Перевод 1: Профессиональный (многоголосый закадровый)
Перевод 2: Одноголосый закадровый Александр Райдер-Cубтитры: русские, английские
Оригинальная аудиодорожка: английский-Режиссер: Корнел Уайлд / Cornel Wilde-В ролях: Корнел Уайлд, Герт Ван дер Берг, Кен Гампу, Белла Рэндлс, Моррисон Гампу, Джон Маркус, Эрик Мканвана, Санди Нкомо, Ричард Нашива, Франклин Мдхлули, Фузи Зазаиокве, Джо Дламини, Хосе Ситхоул, Хорас Гилма-Описание:
В Африку приезжают белые люди, чтобы отправиться на сафари. Они берут опытного проводника и дюжину аборигенов в качестве носильщиков. По дороге наши путешественники встречаются с дикарями из местного племени. Проводник просит охотников дать им немного подарков, чтобы задобрить вождя племени, на чьей территории они собираются охотиться, но белые люди гневно отказываются. Естественно, вскоре жадность дорого обходится нашим путешественникам: во время привала на них нападает племя дикарей и берет в плен. Последний оставшийся в живых проводник вынужден принять участие в охоте аборигенов на самого себя. Ему дают фору в несколько минут, после чего дикари бросаются за ним в погоню. Правда, аборигены даже предположить не могли, что проводник умеет ориентироваться на местности не хуже их, обладая, кроме того, сильным чувством выживания…--Сэмпл: Скачать-Тип релиза: BDRip 720p
Контейнер: MKV-Видео: 1 280x546 (2.35:1); 8000 Kbps; 23.976 fps;
Аудио 1: Russian; AC3; 48.0 KHz; 2ch; 192 Kbps MVO
Аудио 2: Russian; AC3; 48.0 KHz; 2ch; 192 Kbps VO
Аудио 3: English; FLAC; 48.0 KHz; 1ch; 288 Kbps

MediaInfo

Format : Matroska
Format version : Version 4 / Version 2
File size : 5.79 GiB
Duration : 1h 35mn
Overall bit rate mode : Variable
Overall bit rate : 8 673 Kbps
Encoded date : UTC 2016-09-02 14:56:40
Writing application : mkvmerge v8.3.0 ('Over the Horizon') 64bit
Writing library : libebml v1.3.1 + libmatroska v1.4.2
Attachments : poster.jpg
Video
ID : 1
Format : AVC
Format/Info : Advanced Video Codec
Format profile : High@L4.1
Format settings, CABAC : Yes
Format settings, ReFrames : 11 frames
Codec ID : V_MPEG4/ISO/AVC
Duration : 1h 35mn
Bit rate : 8 000 Kbps
Width : 1 280 pixels
Height : 546 pixels
Display aspect ratio : 2.35:1
Frame rate mode : Constant
Frame rate : 23.976 (24000/1001) fps
Color space : YUV
Chroma subsampling : 4:2:0
Bit depth : 8 bits
Scan type : Progressive
Bits/(Pixel*Frame) : 0.477
Stream size : 5.34 GiB (92%)
Writing library : x264 core 148 r2638 7599210
Encoding settings : cabac=1 / ref=11 / deblock=1:-3:-3 / analyse=0x3:0x133 / me=umh / subme=10 / psy=1 / psy_rd=1.00:0.50 / mixed_ref=1 / me_range=32 / chroma_me=1 / trellis=2 / 8x8dct=1 / cqm=0 / deadzone=21,11 / fast_pskip=0 / chroma_qp_offset=-4 / threads=6 / lookahead_threads=1 / sliced_threads=0 / nr=0 / decimate=0 / interlaced=0 / bluray_compat=0 / constrained_intra=0 / bframes=10 / b_pyramid=2 / b_adapt=2 / b_bias=0 / direct=3 / weightb=1 / open_gop=0 / weightp=2 / keyint=240 / keyint_min=23 / scenecut=40 / intra_refresh=0 / rc_lookahead=60 / rc=2pass / mbtree=0 / bitrate=8000 / ratetol=1.0 / qcomp=0.65 / qpmin=0 / qpmax=69 / qpstep=4 / cplxblur=20.0 / qblur=0.5 / vbv_maxrate=62500 / vbv_bufsize=78125 / nal_hrd=none / filler=0 / ip_ratio=1.40 / pb_ratio=1.30 / aq=1:1.00
Default : Yes
Forced : No
Audio #1
ID : 2
Format : AC-3
Format/Info : Audio Coding 3
Mode extension : CM (complete main)
Format settings, Endianness : Big
Codec ID : A_AC3
Duration : 1h 35mn
Bit rate mode : Constant
Bit rate : 192 Kbps
Channel(s) : 2 channels
Channel positions : Front: L R
Sampling rate : 48.0 KHz
Frame rate : 31.250 fps (1536 spf)
Compression mode : Lossy
Stream size : 131 MiB (2%)
Title : MVO
Language : Russian
Default : Yes
Forced : No
Audio #2
ID : 3
Format : AC-3
Format/Info : Audio Coding 3
Mode extension : CM (complete main)
Format settings, Endianness : Big
Codec ID : A_AC3
Duration : 1h 35mn
Bit rate mode : Constant
Bit rate : 192 Kbps
Channel(s) : 2 channels
Channel positions : Front: L R
Sampling rate : 48.0 KHz
Frame rate : 31.250 fps (1536 spf)
Compression mode : Lossy
Stream size : 131 MiB (2%)
Title : VO Александр Райдер
Language : Russian
Default : No
Forced : No
Audio #3
ID : 4
Format : FLAC
Format/Info : Free Lossless Audio Codec
Codec ID : A_FLAC
Duration : 1h 35mn
Bit rate mode : Variable
Bit rate : 288 Kbps
Channel(s) : 1 channel
Channel positions : Front: C
Sampling rate : 48.0 KHz
Frame rate : 11.719 fps (4096 spf)
Bit depth : 24 bits
Stream size : 196 MiB (3%)
Writing library : libFLAC 1.2.1 (UTC 2007-09-17)
Language : English
Default : No
Forced : No
Text #1
ID : 5
Format : UTF-8
Codec ID : S_TEXT/UTF8
Codec ID/Info : UTF-8 Plain Text
Duration : 1h 32mn
Bit rate : 8 bps
Count of elements : 92
Stream size : 5.70 KiB (0%)
Language : Russian
Default : No
Forced : No
Text #2
ID : 6
Format : UTF-8
Codec ID : S_TEXT/UTF8
Codec ID/Info : UTF-8 Plain Text
Duration : 1h 34mn
Bit rate : 10 bps
Count of elements : 309
Stream size : 6.96 KiB (0%)
Language : English
Default : No
Forced : No
Menu
00:00:00.000 : en:
00:09:37.785 : en:
00:22:05.407 : en:
00:36:17.466 : en:
00:43:56.300 : en:
00:51:12.486 : en:
00:57:34.075 : en:
01:06:34.281 : en:
01:17:30.896 : en:
01:26:36.149 : en:

Скриншоты


_________________
Показать сообщения:    

Текущее время: Сегодня 04:57

Часовой пояс: GMT



Вы не можете начинать темы
Вы не можете отвечать на сообщения
Вы не можете редактировать свои сообщения
Вы не можете удалять свои сообщения
Вы не можете голосовать в опросах
Вы не можете прикреплять файлы к сообщениям
Вы не можете скачивать файлы