Важное объявление!
У Нас Все раздачи мультитрекерные, при нуле пиров в релизах, можете смело вставать на закачку!
 
Автор Сообщение

HUNTER

Стаж:
4 года 4 месяца
Сообщений:
56822

Репутация: 101

[+] [-]
Вне форума [Профиль] [ЛС]

Годзилла / Godzilla
Страна: США, Япония
Жанр: фантастика, боевик, триллер
Год выпуска: 2014
Продолжительность: 02:03:07
Перевод: Профессиональный (дублированный)
Cубтитры: Russian (Forced, iTunes), Russian (iTunes), Ukrainian (Forced, iTunes), Ukrainian (iTunes), English, English (SDH), English (SDH-COLORED)
Оригинальная аудиодорожка: английский-Режиссер: Гарет Эдвардс / Gareth Edwards-В ролях: Элизабет Олсен, Брайан Крэнстон, Аарон Тейлор-Джонсон, Виктор Расук, Жюльет Бинош, Салли Хокинс, Кен Ватанабе, Дэвид Стрэтэйрн, С.Дж. Адамс, Ричард Т. Джонс.-Описание: Форд Борди — военнослужащий, побывавший во многих горячих точках, из которых ему удавалось выбраться живым. Много лет назад он потерял свою мать, которая погибла в результате атомного взрыва в Японии. Его отец все эти годы пытается найти правду, поскольку он уверен, что в том взрыве виноваты военные, которые засекретили все данные о том дне, а зону взрыва закрыли на карантин. Форд вынужден был вернуться в Японию, чтобы помочь своему отцу, но он даже не подозревал, с чем им придется столкнуться. В ходе собственного расследования им становится известно, что тот атомный взрыв произошел не во время учений, а был направлен на уничтожение страшного монстра, с которым им придется вскоре столкнуться.-Релиз от: -Качество видео: BDRip
Формат видео: MKV
Видео: 1280x534 at 23.976 fps, x264@L4.1, CRF=15.7, ~6978 kbps avg
Аудио 1: Russian: 48 kHz, AC3, 3/2 (L,C,R,l,r) + LFE ch, ~448.00 kbps avg |Дубляж, Blu-ray CEE|
Аудио 2: Ukrainian: 48 kHz, AC3, 3/2 (L,C,R,l,r) + LFE ch, ~448.00 kbps avg |Дубляж, Blu-ray CEE|
Аудио 3: English: 48 kHz, DTS, 3/2 (L,C,R,l,r) + LFE ch, ~1536.00 kbps avg-Скачать сэмпл: http://sendfile.su/1161900-

Дополнительно

Сохранены оригинальные главы как на Blu-ray.
Исходный WEB-DL куплен в рамках сервиса "Копилка".
Fix OCR, italics, overlapping, etc... @ Dorothea.
Opening credit has slightly banding was treated and zones x51.

MediaInfo

General
Unique ID : 209216903447819709881972569684737783760 (0x9D65B5BD764F27C49560B0993D5FF7D0)
Complete name : E:\Релизы\Godzilla.2014.720p.BluRay.Rus.Ukr.Eng.HDCLUB.mkv
Format : Matroska
Format version : Version 2
File size : 8.20 GiB
Duration : 2h 3mn
Overall bit rate : 9 539 Kbps
Movie name : Godzilla (2014) - Release for HDCLUB
Encoded date : UTC 2014-09-09 20:12:51
Writing application : mkvmerge v3.4.0 ('Rapunzel') built on May 15 2010 09:38:20
Writing library : libebml v0.8.0 + libmatroska v0.9.0
Video
ID : 1
Format : AVC
Format/Info : Advanced Video Codec
Format profile : High@L4.1
Format settings, CABAC : Yes
Format settings, ReFrames : 12 frames
Codec ID : V_MPEG4/ISO/AVC
Duration : 2h 3mn
Bit rate : 6 943 Kbps
Width : 1 280 pixels
Height : 534 pixels
Display aspect ratio : 2.40:1
Frame rate : 23.976 fps
Color space : YUV
Chroma subsampling : 4:2:0
Bit depth : 8 bits
Scan type : Progressive
Bits/(Pixel*Frame) : 0.424
Stream size : 5.97 GiB (73%)
Title : Godzilla (2014) - Release for HDCLUB
Writing library : x264 core 133 r2334 a3ac64b
Encoding settings : cabac=1 / ref=12 / deblock=1:-3:-3 / analyse=0x3:0x133 / me=umh / subme=10 / psy=1 / psy_rd=1.00:0.00 / mixed_ref=1 / me_range=24 / chroma_me=1 / trellis=2 / 8x8dct=1 / cqm=0 / deadzone=21,11 / fast_pskip=0 / chroma_qp_offset=-2 / threads=6 / lookahead_threads=1 / sliced_threads=0 / nr=0 / decimate=0 / interlaced=0 / bluray_compat=0 / constrained_intra=0 / bframes=8 / b_pyramid=2 / b_adapt=2 / b_bias=0 / direct=3 / weightb=1 / open_gop=0 / weightp=2 / keyint=250 / keyint_min=23 / scenecut=40 / intra_refresh=0 / rc=crf / mbtree=0 / crf=15.7 / qcomp=0.65 / qpmin=0 / qpmax=69 / qpstep=4 / ip_ratio=1.40 / pb_ratio=1.20 / aq=1:0.85 / zones=404,2947,crf=14/6537,9274,crf=13/19117,19297,crf=14/21658,21967,crf=14/22520,25501,crf=15/25502,27188,crf=13.5/28392,28682,crf=13/29404,32661,crf=14.5/32763,36139,crf=15/41185,42455,crf=13.5/42456,42934,crf=14/43293,43461,crf=14/43768,44561,crf=14/45738,46770,crf=14.5/46771,46840,crf=13/46956,47085,crf=15/47086,47165,crf=15/47342,47805,crf=15/48155,48365,crf=14.5/48575,48714,crf=15/48786,49295,crf=14.5/49296,49538,crf=14.5/49841,49924,crf=15/50066,50224,crf=13/50576,50587,crf=13.5/50656,52162,crf=13/52475,52596,crf=15/52773,53150,crf=14.5/53272,55497,crf=14.5/58273,59595,crf=14.5/61449,67942,crf=15/68854,69474,crf=15/69876,69976,crf=15/70259,70440,crf=13.5/71170,71735,crf=14.5/72219,74174,crf=13/74798,74971,crf=15/74972,85525,crf=14/85787,86485,crf=15/89894,90697,crf=15/90783,90988,crf=13.5/91327,92221,crf=14/92909,93105,crf=14.5/94803,97569,crf=15/105115,113554,crf=14/113729,113914,crf=15/119807,129403,crf=15.4/134276,134484,crf=13.5/134881,135018,crf=14.5/135019,135919,crf=14/136111,161236,crf=14
Language : English
Default : Yes
Forced : No
Audio #1
ID : 2
Format : AC-3
Format/Info : Audio Coding 3
Mode extension : CM (complete main)
Codec ID : A_AC3
Duration : 2h 3mn
Bit rate mode : Constant
Bit rate : 448 Kbps
Channel(s) : 6 channels
Channel positions : Front: L C R, Side: L R, LFE
Sampling rate : 48.0 KHz
Bit depth : 16 bits
Compression mode : Lossy
Stream size : 395 MiB (5%)
Title : AC3 5.1 @ 448 kbps - DUB, Blu-ray CEE
Language : Russian
Default : Yes
Forced : No
Audio #2
ID : 3
Format : AC-3
Format/Info : Audio Coding 3
Mode extension : CM (complete main)
Codec ID : A_AC3
Duration : 2h 3mn
Bit rate mode : Constant
Bit rate : 448 Kbps
Channel(s) : 6 channels
Channel positions : Front: L C R, Side: L R, LFE
Sampling rate : 48.0 KHz
Bit depth : 16 bits
Compression mode : Lossy
Stream size : 395 MiB (5%)
Title : AC3 5.1 @ 448 kbps - DUB, Blu-ray CEE
Language : Ukrainian
Default : No
Forced : No
Audio #3
ID : 4
Format : DTS
Format/Info : Digital Theater Systems
Codec ID : A_DTS
Duration : 2h 3mn
Bit rate mode : Constant
Bit rate : 1 510 Kbps
Channel(s) : 6 channels
Channel positions : Front: L C R, Side: L R, LFE
Sampling rate : 48.0 KHz
Bit depth : 24 bits
Compression mode : Lossy
Delay relative to video : 11ms
Stream size : 1.30 GiB (16%)
Title : DTS 5.1 @ 1536 kbps
Language : English
Default : No
Forced : No
Text #1
ID : 5
Format : UTF-8
Codec ID : S_TEXT/UTF8
Codec ID/Info : UTF-8 Plain Text
Title : Forced
Language : Russian
Default : Yes
Forced : No
Text #2
ID : 6
Format : UTF-8
Codec ID : S_TEXT/UTF8
Codec ID/Info : UTF-8 Plain Text
Language : Russian
Default : No
Forced : No
Text #3
ID : 7
Format : UTF-8
Codec ID : S_TEXT/UTF8
Codec ID/Info : UTF-8 Plain Text
Title : Forced
Language : Ukrainian
Default : No
Forced : No
Text #4
ID : 8
Format : UTF-8
Codec ID : S_TEXT/UTF8
Codec ID/Info : UTF-8 Plain Text
Language : Ukrainian
Default : No
Forced : No
Text #5
ID : 9
Format : UTF-8
Codec ID : S_TEXT/UTF8
Codec ID/Info : UTF-8 Plain Text
Language : English
Default : No
Forced : No
Text #6
ID : 10
Format : UTF-8
Codec ID : S_TEXT/UTF8
Codec ID/Info : UTF-8 Plain Text
Title : SDH
Language : English
Default : No
Forced : No
Text #7
ID : 11
Format : UTF-8
Codec ID : S_TEXT/UTF8
Codec ID/Info : UTF-8 Plain Text
Title : SDH-COLORED
Language : English
Default : No
Forced : No
Menu
00:00:00.000 : en:00:00:00.000
00:09:22.562 : en:00:09:22.562
00:19:03.225 : en:00:19:03.225
00:30:25.532 : en:00:30:25.532
00:39:10.098 : en:00:39:10.098
00:49:43.439 : en:00:49:43.439
00:59:27.189 : en:00:59:27.189
01:09:50.186 : en:01:09:50.186
01:19:11.246 : en:01:19:11.246
01:29:57.267 : en:01:29:57.267
01:40:14.759 : en:01:40:14.759
01:52:14.728 : en:01:52:14.728
01:56:10.088 : en:01:56:10.088

Скриншоты


_________________
Показать сообщения:    

Текущее время: Сегодня 21:42

Часовой пояс: GMT



Вы не можете начинать темы
Вы не можете отвечать на сообщения
Вы не можете редактировать свои сообщения
Вы не можете удалять свои сообщения
Вы не можете голосовать в опросах
Вы не можете прикреплять файлы к сообщениям
Вы не можете скачивать файлы