Важное объявление!
У Нас Все раздачи мультитрекерные, при нуле пиров в релизах, можете смело вставать на закачку!
 
Автор Сообщение

HUNTER

Стаж:
4 года 4 месяца
Сообщений:
56848

Репутация: 101

[+] [-]
Вне форума [Профиль] [ЛС]

Годзилла / Godzilla-Год выпуска: 2014
Страна: США, Япония
Жанр: Фантастика, боевик, приключения
Продолжительность: 2 ч. 3 м. 7 с.
Перевод: Профессиональный (полное дублирование) |Лицензия|
Субтитры: есть-Студия: Warner Bros., Legendary Pictures, Disruption Entertainment
Режиссёр: Гарет Эдвардс-В ролях:
Аарон Тейлор-Джонсон, Брайан Крэнстон, Элизабет Олсен, Жюльет Бинош, Дэвид Стрэтэйрн, Кен Ватанабе, Салли Хокинс, Эл Сапьенза, Брайан Маркинсон, Ричард Т. Джонс-Роли дублировали:
Антон Эльдаров (Ford Brody), Алексей Рязанцев (Dr. Ishiro Serizawa), Вероника Саркисова (Elle Brody), Елена Ивасишина (Vivienne Graham), Александр Груздев (Joe Brody), Василий Бочкарев (Admiral William Stenz), Михаил Белякович (Captain Russell Hampton), Анастасия Лапина, Елена Войновская, Елена Харитонова (Sandra Brody), Иван Дахненко (Young Ford), Василий Дахненко (Lieutenant Commander Marcus Waltz)-Описание:
Человечество случайно разбудило гигантское древнее существо, что повлекло за собой ужасающие последствия...-Качество: BDRip 1080p HEVC (SSIM: 0.9816530)
Исходник: Blu-Ray Disc
Контейнер: MKV
Видео кодек: x265
Аудио кодек: AC-3
Видео: HEVC at 2635 Кбит/сек, 1920 x 800 (2.400) at 23.976 fps
Аудио: AC-3 at 448 Кбит/сек, 6 каналов, 48,0 КГц
Субтитры 1: русские на места без перевода (SRT/UTF8)
Субтитры 2: русские полные (SRT/UTF8)
Навигация по главам: есть-

Медиаинфо

Код: copyText_writeLink('this.parentNode.parentNode.nextSibling.nextSibling');
Код:
Общее
Уникальный идентификатор                 : 219032236229268488049464058319776983052 (0xA4C813024F79C4C1B68FEB4BC883280C)
Полное имя                               : Годзилла [Godzilla] (2014) BDRip-HEVC 1080p.mkv
Формат                                   : Matroska
Версия формата                           : Version 4 / Version 2
Размер файла                             : 2,65 Гбайт
Продолжительность                        : 2 ч. 3 м.
Общий поток                              : 3086 Кбит/сек
Дата кодирования                         : UTC 2014-09-21 10:01:29
Программа кодирования                    : mkvmerge v7.2.0 ('On Every Street') 32bit built on Sep 13 2014 15:42:11
Библиотека кодирования                   : libebml v1.3.0 + libmatroska v1.4.1
Видео
Идентификатор                            : 1
Формат                                   : HEVC
Формат/Информация                        : High Efficiency Video Coding
Идентификатор кодека                     : V_MPEGH/ISO/HEVC
Продолжительность                        : 2 ч. 3 м.
Битрейт                                  : 2576 Кбит/сек
Ширина                                   : 1920 пикселей
Высота                                   : 800 пикселей
Соотношение сторон                       : 2,40:1
Режим частоты кадров                     : Постоянный
Частота кадров                           : 23,976 кадра/сек
Цветовое пространство                    : YUV
Субдискретизация насыщенности            : 4:2:0
Битовая глубина                          : 8 бит
Бит/(Пиксели*Кадры)                      : 0.070
Размер потока                            : 2,22 Гбайт (83%)
Библиотека кодирования                   : x265 1.3+206-199e8f2e0d54abd1 • Compiling by snayper [x265.ru]
Настройки программы                      : wpp / ctu=64 / tu-intra-depth=4 / tu-inter-depth=4 / me=2 / subme=7 / merange=64 / no-rect / no-amp / max-merge=5 / no-early-skip / no-fast-cbf / rdpenalty=0 / no-tskip / no-tskip-fast / strong-intra-smoothing / no-lossless / no-cu-lossless / no-constrained-intra / no-fast-intra / no-open-gop / interlace=0 / keyint=720 / min-keyint=1 / scenecut=0 / rc-lookahead=40 / bframes=12 / bframe-bias=0 / b-adapt=2 / ref=16 / weightp / no-weightb / aq-mode=2 / aq-strength=1.00 / cbqpoffs=0 / crqpoffs=0 / rd=4 / psy-rd=1.20 / psy-rdoq=4.00 / signhide / lft / sao / sao-lcu-bounds=0 / sao-lcu-opt=1 / b-pyramid / cutree / rc=crf / crf=18.0 / qcomp=0.60 / qpmin=0 / qpmax=51 / qpstep=4 / ipratio=1.40 / pbratio=1.30
Default                                  : Да
Forced                                   : Нет
Аудио
Идентификатор                            : 2
Формат                                   : AC-3
Формат/Информация                        : Audio Coding 3
Расширение режима                        : CM (complete main)
Параметр Endianness формата              : Big
Идентификатор кодека                     : A_AC3
Продолжительность                        : 2 ч. 3 м.
Вид битрейта                             : Постоянный
Битрейт                                  : 448 Кбит/сек
Каналы                                   : 6 каналов
Расположение каналов                     : Front: L C R, Side: L R, LFE
Частота                                  : 48,0 КГц
Битовая глубина                          : 16 бит
Метод сжатия                             : С потерями
Размер потока                            : 395 Мбайт (15%)
Заголовок                                : Dub
Язык                                     : Russian
Default                                  : Да
Forced                                   : Нет
Текст #1
Идентификатор                            : 3
Формат                                   : UTF-8
Идентификатор кодека                     : S_TEXT/UTF8
Идентификатор кодека/Информация          : UTF-8 Plain Text
Заголовок                                : на места без перевода
Язык                                     : Russian
Default                                  : Да
Forced                                   : Да
Текст #2
Идентификатор                            : 4
Формат                                   : UTF-8
Идентификатор кодека                     : S_TEXT/UTF8
Идентификатор кодека/Информация          : UTF-8 Plain Text
Заголовок                                : Full
Язык                                     : Russian
Default                                  : Нет
Forced                                   : Нет
Меню
00:00:00.000                             : :01
00:09:22.562                             : :02
00:19:03.225                             : :03
00:30:25.532                             : :04
00:39:10.097                             : :05
00:49:43.438                             : :06
00:59:27.188                             : :07
01:09:50.186                             : :08
01:19:11.246                             : :09
01:29:57.266                             : :10
01:40:14.758                             : :11
01:52:14.728                             : :12
01:56:10.088                             : :13
-

x265 log

Код: copyText_writeLink('this.parentNode.parentNode.nextSibling.nextSibling');
Код:
x265 [info]: HEVC encoder version 1.3+206-199e8f2e0d54abd1
x265 [info]: build info [Windows][GCC 4.9.1][64 bit] 8bpp
x265 [info]: Compiling by snayper [x265.ru]
x265 [info]: WPP streams / pool / frames         : 26 / 8 / 2
x265 [info]: NONE profile, Level-NONE (Main tier)
x265 [info]: CU size                             : 64
x265 [info]: Max RQT depth inter / intra         : 4 / 4
x265 [info]: ME / range / subpel / merge         : umh / 64 / 7 / 5
x265 [info]: Keyframe min / max / scenecut       : 1 / 720 / 0
x265 [info]: Lookahead / bframes / badapt        : 40 / 12 / 2
x265 [info]: b-pyramid / weightp / weightb / refs: 1 / 1 / 0 / 16
x265 [info]: Rate Control / AQ-Strength / CUTree : CRF-18.0 / 1.0 / 1
x265 [info]: tools: rd=4 psy-rd=1.20 psy-rdoq=4.00 lft sao-lcu signhide
x265 [info]: frame I:    246, Avg QP:17.40  kb/s: 12488.82  SSIM Mean: 0.985498 (18.386dB)
x265 [info]: frame P:  31954, Avg QP:18.44  kb/s: 7941.57   SSIM Mean: 0.984012 (17.962dB)
x265 [info]: frame B: 144914, Avg QP:21.85  kb/s: 1448.19   SSIM Mean: 0.981126 (17.241dB)
x265 [info]: global : 177114, Avg QP:21.22  kb/s: 2635.03   SSIM Mean: 0.981653 (17.364dB)
x265 [info]: Weighted P-Frames: Y:7.5% UV:4.2%
x265 [info]: consecutive B-frames: 3.4% 3.8% 5.0% 31.4% 11.0% 13.8% 3.8% 24.0% 0.7% 0.5% 0.2% 2.2% 0.1%
-

Скриншоты

BDRip-HEVC----------vs----------Blu-Ray Disc











-СЭМПЛ-

Что такое HEVC и как его смотреть?

Внимание!
Рип в фомате HEVC, в настоящее время не поддерживается аппаратными проигрывателями.
Для корректного воспроизведения может потребоваться обновление ПО.
Что такое HEVC
H.265/HEVC (High Efficiency Video Coding) - это новый стандарт кодирования видео.
Стандарт H.265/HEVC является логическим продолжением стандарта H.264/AVC (Advanced Video Coding), и харакетризуется более эффективными алгоритмами сжатия, а также поддержкой высокого разрешения вплоть до 8K UHD (8192x4320).
Первая версия стандарта H.265 была опубликована в начале 2013 года.
Как смотреть HEVC
Любителям решения из коробки - установить последнюю версию на выбор:
Media Player Classic - Black Edition (MPC-BE)
VLC media player
Daum Pot Player
GOM Media Player
Любителям WMP и других плееров, использующих по умолчанию для воспроизведения системные кодеки+сплитеры установить последнюю версию LAV Filters;
любой другой кодек-пак, в котором присутствует LAV Filters, например K-Lite Codec Pack версии 10.1.0 и выше.
Любимые плееры, не использующии по умолчанию для воспроизведения системные кодеки+сплитеры, нужно перенастроить на использование оных.
-Источник:

_________________
Показать сообщения:    

Текущее время: Сегодня 05:18

Часовой пояс: GMT



Вы не можете начинать темы
Вы не можете отвечать на сообщения
Вы не можете редактировать свои сообщения
Вы не можете удалять свои сообщения
Вы не можете голосовать в опросах
Вы не можете прикреплять файлы к сообщениям
Вы не можете скачивать файлы
Наши партнеры: интернет магазин Ивановского трикотажа textilla.ru