Важное объявление!
У Нас Все раздачи мультитрекерные, при нуле пиров в релизах, можете смело вставать на закачку!
 
Автор Сообщение

HUNTER

Стаж:
4 года 4 месяца
Сообщений:
56842

Репутация: 101

[+] [-]
Вне форума [Профиль] [ЛС]

Год Дракона / Year of the Dragon-
Страна: США, Франция
Студия: AMLF, Dino De Laurentiis Company, Metro-Goldwyn-Mayer (MGM)
Жанр: боевик, триллер, драма, криминал,
Год выпуска: 1985
Продолжительность: 02:08:53-Перевод: Профессиональный (двухголосый закадровый) НТВ+ | Ирина Савина, Игорь Тарадайкин
Cубтитры: нет
Оригинальная аудиодорожка: английский-Режиссер: Майкл Чимино / Michael Cimino
В ролях: Микки Рурк, Джон Лоун, Эриан, Леонард Термо, Рэймонд Дж. Бэрри, Кэролайн Кэва, Эдди Джонс, Джои Чин, Виктор Вонг, К. Док Ип...- | Релиз: -Описание: В глубоком лабиринте Нью — Йорка скрывается Китайский квартал — рассадник Триады, тысячелетней криминальной угрозы миру. Джой Тай, ее новый крестный отец, ожесточает раздел территорий азиатской и итальянской наркомафий. Улицы обагряются кровью его врагов.
Но в дела Китайского квартала напролом вторгается капитан полиции Стэнли Уайт, ветеран вьетнамской войны. Он бессердечен и бесстрастен. Он — сжатый кулак. Он объявляет преступному беспределу бескомпромиссную войну…-Семпл: http://sendfile.su/1147957-Тип релиза: HDTV 1080i
Контейнер: TS
Видео: 1920x1080i (16:9), 25.000 fps, AVC, ~6893 Kbps, 0.133 bits/pixel
Аудио 1: Русский, 48.0 KHz, MPEG-1 Audio layer 2, 2 ch, 192 kbps
Аудио 2: English, 48.0 KHz, MPEG-1 Audio layer 2, 2 ch, 192 kbps

MediaInfo

GeneralID : 1 (0x1)Complete name : Year of the Dragon 1985 MGMHD 1080i.rus.eng.tsFormat : MPEG-TSFile size : 6.90 GiBDuration : 2h 8mnOverall bit rate mode : VariableOverall bit rate : 7 660 KbpsMaximum Overall bit rate : 35.5 Mbps
VideoID : 4113 (0x1011)Menu ID : 1 (0x1)Format : AVCFormat/Info : Advanced Video CodecFormat profile : Main@L4Format settings, CABAC : YesFormat settings, ReFrames : 4 framesFormat settings, GOP : M=4, N=28Codec ID : 27Duration : 2h 8mnBit rate mode : VariableBit rate : 6 893 KbpsMaximum bit rate : 40.0 MbpsWidth : 1 920 pixelsHeight : 1 080 pixelsDisplay aspect ratio : 16:9Frame rate : 25.000 fpsStandard : ComponentColor space : YUVChroma subsampling : 4:2:0Bit depth : 8 bitsScan type : InterlacedScan order : Top Field FirstBits/(Pixel*Frame) : 0.133Stream size : 6.21 GiB (90%)Color range : LimitedColor primaries : BT.709Transfer characteristics : BT.709Matrix coefficients : BT.709
Audio #1ID : 4352 (0x1100)Menu ID : 1 (0x1)Format : MPEG AudioFormat version : Version 1Format profile : Layer 2Codec ID : 4Duration : 2h 8mnBit rate mode : ConstantBit rate : 192 KbpsChannel(s) : 2 channelsSampling rate : 48.0 KHzCompression mode : LossyStream size : 177 MiB (3%)Language : Russian
Audio #2ID : 4353 (0x1101)Menu ID : 1 (0x1)Format : MPEG AudioFormat version : Version 1Format profile : Layer 2Codec ID : 4Duration : 2h 8mnBit rate mode : ConstantBit rate : 192 KbpsChannel(s) : 2 channelsSampling rate : 48.0 KHzCompression mode : LossyStream size : 177 MiB (3%)Language : English

Скриншоты


_________________
Показать сообщения:    

Текущее время: Сегодня 19:17

Часовой пояс: GMT



Вы не можете начинать темы
Вы не можете отвечать на сообщения
Вы не можете редактировать свои сообщения
Вы не можете удалять свои сообщения
Вы не можете голосовать в опросах
Вы не можете прикреплять файлы к сообщениям
Вы не можете скачивать файлы
Наши партнеры: интернет магазин Ивановского трикотажа textilla.ru