Важное объявление!
У Нас Все раздачи мультитрекерные, при нуле пиров в релизах, можете смело вставать на закачку!
 
Автор Сообщение

HUNTER

Стаж:
4 года 4 месяца
Сообщений:
56719

Репутация: 101

[+] [-]
Вне форума [Профиль] [ЛС]

Гог
Gog
-
Год выпуска: 1954
Страна: США (Ivan Tors Productions, United Artists) (Восстановление фильма - 3-D Film Archive)
Жанр: Ужасы, Фантастика, Триллер, Драма, Мелодрама
Продолжительность: 01:22:35
Перевод: Профессиональный многоголосый закадровый - НТВ+
Режиссер: Херберт Л. Строк / Herbert L. Strock-В ролях: Ричард Иган (Dr. David Sheppard), Констанс Даулинг (Joanna Merritt), Херберт Маршалл (Dr. Van Ness), Джон Венграф (Dr. Zeitman), Филип Ван Зандт (Dr. Pierre Elzevir), Валери Вернон (Mme. Elzevir), Стивен Робертс (Maj. Howard), Байрон Кэйн (Dr. Carter), Дэвид Элперт (Dr. Peter Burden), Майкл Фокс (Dr. Hubertus)-Описание: Агент безопасности расследует саботаж и убийство, произошедшие в секретной подземной лаборатории, где находятся два экспериментальных робота.-Премьера (мир): 5 июня 1954
Бюджет: $250 000

. .
-Качество: BDRip (by Ash61)
Контейнер: MKV
Формат 3D: Half OverUnder / Вертикальная анаморфная стереопара
Порядок ракурсов: левый ракурс первый-Видео: AVC / 1920х1080p / 23,976 fps / 10.9 Mbps
Аудио:
#1 - Русский / AC3 / 48 KHz / 2 ch / 192 Kbps (MVO - НТВ+)
#2 - Английский / AC3 / 48 KHz / 2 ch / 448 Kbps (Original - BD 3D)
Субтитры: Отсутствуют

MediaInfo

General
Unique ID : 188684479740818494386198522503136955828 (0x8DF34F17D4FB952AB130D100FEEE4DB4)
Complete name : E:\Gog(1954)3D-halfOU(Ash61)MVO.mkv
Format : Matroska
Format version : Version 2
File size : 6.79 GiB
Duration : 1h 22mn
Overall bit rate : 11.8 Mbps
Movie name : Гог / Gog (1954) в 3Д
Encoded date : UTC 2016-06-06 16:35:16
Writing application : mkvmerge v5.8.0 ('No Sleep / Pillow') built on Sep 2 2012 15:37:04
Writing library : libebml v1.2.3 + libmatroska v1.3.0
Video
ID : 1
Format : AVC
Format/Info : Advanced Video Codec
Format profile : High@L4.1
Format settings, CABAC : Yes
Format settings, ReFrames : 4 frames
Codec ID : V_MPEG4/ISO/AVC
Duration : 1h 22mn
Bit rate : 10.9 Mbps
Width : 1 920 pixels
Height : 1 080 pixels
Display aspect ratio : 16:9
Frame rate mode : Constant
Frame rate : 23.976 fps
Color space : YUV
Chroma subsampling : 4:2:0
Bit depth : 8 bits
Scan type : Progressive
Bits/(Pixel*Frame) : 0.219
Stream size : 6.29 GiB (93%)
Title : BDRip by Ash61
Writing library : x264 core 146 r2538 121396c
Encoding settings : cabac=1 / ref=4 / deblock=1:-3:-3 / analyse=0x3:0x113 / me=umh / subme=10 / psy=1 / psy_rd=1.00:0.00 / mixed_ref=1 / me_range=32 / chroma_me=1 / trellis=2 / 8x8dct=1 / cqm=0 / deadzone=21,11 / fast_pskip=1 / chroma_qp_offset=-2 / threads=12 / lookahead_threads=3 / sliced_threads=0 / nr=0 / decimate=1 / interlaced=0 / bluray_compat=0 / constrained_intra=0 / bframes=12 / b_pyramid=2 / b_adapt=2 / b_bias=0 / direct=3 / weightb=1 / open_gop=0 / weightp=2 / keyint=250 / keyint_min=23 / scenecut=40 / intra_refresh=0 / rc_lookahead=60 / rc=crf / mbtree=1 / crf=16.0 / qcomp=0.70 / qpmin=0 / qpmax=69 / qpstep=4 / vbv_maxrate=40000 / vbv_bufsize=30000 / crf_max=0.0 / nal_hrd=none / filler=0 / frame-packing=4 / ip_ratio=1.40 / aq=1:0.70
Language : English
Default : Yes
Forced : No
Audio #1
ID : 2
Format : AC-3
Format/Info : Audio Coding 3
Mode extension : CM (complete main)
Format settings, Endianness : Big
Codec ID : A_AC3
Duration : 1h 22mn
Bit rate mode : Constant
Bit rate : 192 Kbps
Channel(s) : 2 channels
Channel positions : Front: L R
Sampling rate : 48.0 KHz
Bit depth : 16 bits
Compression mode : Lossy
Stream size : 113 MiB (2%)
Title : Многоголосый закадровый - НТВ+
Language : Russian
Default : Yes
Forced : No
Audio #2
ID : 3
Format : AC-3
Format/Info : Audio Coding 3
Mode extension : CM (complete main)
Format settings, Endianness : Big
Codec ID : A_AC3
Duration : 1h 22mn
Bit rate mode : Constant
Bit rate : 448 Kbps
Channel(s) : 2 channels
Channel positions : Front: L R
Sampling rate : 48.0 KHz
Bit depth : 16 bits
Compression mode : Lossy
Stream size : 265 MiB (4%)
Title : Original - BD 3D
Language : English
Default : No
Forced : No
Menu
00:00:00.000 : :1
00:11:00.243 : :2
00:21:18.777 : :3
00:31:38.688 : :4
00:38:05.700 : :5
00:47:00.651 : :6
00:55:00.047 : :7
00:59:34.321 : :8
01:05:40.812 : :9
01:14:26.837 : :10

Для оценки 3Д - Анимированные скрины


_________________
Показать сообщения:    

Текущее время: Сегодня 04:46

Часовой пояс: GMT



Вы не можете начинать темы
Вы не можете отвечать на сообщения
Вы не можете редактировать свои сообщения
Вы не можете удалять свои сообщения
Вы не можете голосовать в опросах
Вы не можете прикреплять файлы к сообщениям
Вы не можете скачивать файлы