Важное объявление!
У Нас Все раздачи мультитрекерные, при нуле пиров в релизах, можете смело вставать на закачку!
 
Автор Сообщение

HUNTER

Стаж:
4 года 4 месяца
Сообщений:
56734

Репутация: 101

[+] [-]
Вне форума [Профиль] [ЛС]

Гнев / Rage
Страна: США
Студия: PM Entertainment Group
Жанр: боевик
Год выпуска: 1995
Продолжительность: 01:38:48
Перевод: Авторский (одноголосый закадровый) Гаврилов
Перевод 2: Профессиональный (двухголосый закадровый) НТВ
Перевод 3: Профессиональный (двухголосый закадровый) REN-TV
Cубтитры: нет
Оригинальная аудиодорожка: английский
Режиссер: Джозеф Мерхи / Joseph Merhi
В ролях: Гэри Дэниелс, Кеннет Тайгар, Фиона Хатчинсон, Джиллиан МакУиртер, Питер Джейсон, Марк Меткалф, Тим Колсери, Дэвид Поулидж
Описание: Сюжет прост: поехал учитель по делам, а к нему в автомобиль ворвался мексиканец с пистолетом, скрывающийся от полиции. Выбора не было — пришлось подчиняться. Их поймали, но «полицейские» доставили учителя не в участок, а в тайную лабораторию, где нелегальных эмигрантов использовали в качестве подопытных крыс для создания идеальных солдат-убийц, не знающих угрызений совести.
Ему, как и остальным, сделали укол, но скромный с виду учитель оказался специалистом по боевым искусством. И он сбежал…
Доп. информация: Двд с переводом Гаврилова предоставлен MORTICIANN большое спасибо.
Русские звуковые дорожки нтв и рен тв взяты с этой раздачи [url=viewtopic.php?t=4901417]http://rutracker.org/forum/viewtopic.php?t=4901417[/url] автору большое спасибо.
За синхронизацию дорожек нтв и рен тв огромное спасибо Нордер.
При пересборе двд были использованы программы:
VirtualDubMod_1_5_10_2_All_inclusive - извлечение русской дорожки из рипа
PgcDemux - разделение компонентов диска на файлы
Muxman - мультиплексирование и авторинг DVD
VobBlanker - реавторинг DVD

Скрин завершения проекта

Сэмпл: http://sendfile.su/1262063
Тип релиза: DVD5 (Custom)
Контейнер: DVD-Video
Видео: NTSC 4:3 (720x480) VBR
Аудио: English (Dolby AC3, 192 Кбит/сек, 2 ch)
Аудио 2: Russian (Dolby AC3, 192 Кбит/сек, 2 ch)
Аудио 3: Russian (Dolby AC3, 192 Кбит/сек, 2 ch)
Аудио 4: Russian (Dolby AC3, 192 Кбит/сек, 2 ch)

DVDInfo

Title: Rage_1995
Size: 4.22 Gb ( 4 428 414,00 KBytes ) - DVD-5
Enabled regions: 1, 2, 3, 4, 5, 6, 7, 8
VTS_01 :
Play Length: 01:38:48
Video: NTSC 4:3 (720x480) VBR
Audio:
English, AC3, 2/0 (L,R) ch, 192 kbps, Delay 0 mSec
Russian, AC3, 2/0 (L,R) ch, 192 kbps, Delay 0 mSec
Russian, AC3, 2/0 (L,R) ch, 192 kbps, Delay 0 mSec
Russian, AC3, 2/0 (L,R) ch, 192 kbps, Delay 0 mSec
VTS_02 :
Play Length: 00:00:00
Video: NTSC 4:3 (720x480) VBR
* Menus Information *
VIDEO_TS Menu
Video:
NTSC 4:3 (720x480) VBR
English Language Unit :
Title Menu
VTS_01 Menu
Video:
NTSC 4:3 (720x480) VBR
English Language Unit :
Root Menu
VTS_02 Menu
Video:
NTSC 4:3 (720x480) VBR
English Language Unit :

MediaInfo

Общее
Полное имя : C:\1\DVD ГОТОВ\Rage_1995\VIDEO_TS\VTS_01_1.VOB
Формат : MPEG-PS
Размер файла : 1024 Мбайт
Продолжительность : 22 м.
Общий поток : 6399 Кбит/сек
Видео
Идентификатор : 224 (0xE0)
Формат : MPEG Video
Версия формата : Version 2
Профиль формата : Main@Main
Параметр BVOP формата : Да
Параметр матрицы формата : По умолчанию
Параметр GOP формата : M=5, N=26
Структура изображения : Field
Продолжительность : 22 м.
Битрейт : 5500 Кбит/сек
Ширина : 720 пикселей
Высота : 480 пикселей
Соотношение сторон : 4:3
Частота кадров : 29,970 кадров/сек
Стандарт вещания : NTSC
Цветовое пространство : YUV
Субдискретизация насыщенности : 4:2:0
Битовая глубина : 8 бит
Тип развёртки : Чересстрочная
Порядок развёртки : Верхнее поле первое
Метод сжатия : С потерями
Бит/(Пиксели*Кадры) : 0.531
Временной код первого кадра : 01:03:01:16
Оригинал временного кода : Group of pictures header
GOP, открыто/закрыто : Открыто
Размер потока : 881 Мбайт (86%)
Основные цвета : BT.601 NTSC
Характеристики трансфера : BT.601
Коэффициенты матрицы : BT.601
Аудио #1
Идентификатор : 189 (0xBD)-128 (0x80)
Формат : AC-3
Формат/Информация : Audio Coding 3
Расширение режима : CM (complete main)
Параметр Endianness формата : Big
Режим смешивания : DVD-Video
Продолжительность : 22 м.
Вид битрейта : Постоянный
Битрейт : 192 Кбит/сек
Каналы : 2 канала
Расположение каналов : Front: L R
Частота : 48,0 КГц
Метод сжатия : С потерями
Задержка видео : 17 мс.
Размер потока : 30,7 Мбайт (3%)
Аудио #2
Идентификатор : 189 (0xBD)-129 (0x81)
Формат : AC-3
Формат/Информация : Audio Coding 3
Профиль формата : Dolby Digital
Расширение режима : CM (complete main)
Параметр Endianness формата : Big
Режим смешивания : DVD-Video
Продолжительность : 22 м.
Вид битрейта : Постоянный
Битрейт : 192 Кбит/сек
Каналы : 2 канала
Расположение каналов : Front: L R
Частота : 48,0 КГц
Метод сжатия : С потерями
Задержка видео : 17 мс.
Размер потока : 30,7 Мбайт (3%)
Аудио #3
Идентификатор : 189 (0xBD)-130 (0x82)
Формат : AC-3
Формат/Информация : Audio Coding 3
Расширение режима : CM (complete main)
Параметр Endianness формата : Big
Режим смешивания : DVD-Video
Продолжительность : 22 м.
Вид битрейта : Постоянный
Битрейт : 192 Кбит/сек
Каналы : 2 канала
Расположение каналов : Front: L R
Частота : 48,0 КГц
Метод сжатия : С потерями
Задержка видео : 17 мс.
Размер потока : 30,7 Мбайт (3%)
Аудио #4
Идентификатор : 189 (0xBD)-131 (0x83)
Формат : AC-3
Формат/Информация : Audio Coding 3
Расширение режима : CM (complete main)
Параметр Endianness формата : Big
Режим смешивания : DVD-Video
Продолжительность : 22 м.
Вид битрейта : Постоянный
Битрейт : 192 Кбит/сек
Каналы : 2 канала
Расположение каналов : Front: L R
Частота : 48,0 КГц
Метод сжатия : С потерями
Задержка видео : 17 мс.
Размер потока : 30,7 Мбайт (3%)
Меню

Постеры

Скриншоты меню

Скриншоты


_________________
Показать сообщения:    

Текущее время: Сегодня 18:00

Часовой пояс: GMT



Вы не можете начинать темы
Вы не можете отвечать на сообщения
Вы не можете редактировать свои сообщения
Вы не можете удалять свои сообщения
Вы не можете голосовать в опросах
Вы не можете прикреплять файлы к сообщениям
Вы не можете скачивать файлы