Важное объявление!
У Нас Все раздачи мультитрекерные, при нуле пиров в релизах, можете смело вставать на закачку!
 
Автор Сообщение

HUNTER

Стаж:
4 года 4 месяца
Сообщений:
56719

Репутация: 101

[+] [-]
Вне форума [Профиль] [ЛС]

Гляди в оба / Таинственный убийца / Красные кошки в стеклянном лабиринте / Gatti rossi in un labirinto di vetro / The Devil's Eye / The Eye / The Secret Killer / El ojo en la oscuridad /Wide-Eyed in the Dark / Eyeball
Страна: Италия, Испания
Студия: Estela Films / National Cinematografica
Жанр: джалло
Год выпуска: 1975
Продолжительность: 01:28:26
Перевод: Любительский (двухголосый закадровый) den904, DeadSno
Cубтитры: нет
Оригинальная аудиодорожка: итальянский
Режиссер: Умберто Ленци / Umberto Lenzi
В ролях: Мартин Брошар, Джон Ричардсон, Инесс Пеллегрини, Андреас Мехуто
Описание: Группу американских туристов, путешествующих по Испании, начинает терроризировать маньяк в красном плаще. Он убивает несчастных путешественников, да не просто так, а выкалывает им глаза. Марк догадывается, что эти преступления каким-то образом могут быть связаны со смертью его жены. Несколько месяцев назад ее нашли мертвой в бассейне. Тем временем туристы продолжают становиться жертвами кровавого маньяка. Марку предстоит выяснить, зачем маньяк вырезает жертвам глаза…
Очень неплохой детектив и очень жестокие сцены убийств. Всего картине семь трупов. Английский актер Джон Ричардсон (род. в 1934 году) снимался в картинах «Маска демона» (1960), «Она» (1965), «Миллион лет до нашей эры» (1966), «Насилие монахов» (1967), «Кандидат на убийство» (1969), «Франкенштейн-80» (1972), «Тела носят следы полового насилия» (1973), «Порок носит черные чулки» (1975), «Война в космосе» (1977), «Война планет 2000 года» (1977), «Девять гостей для преступления» (1977), «Смертельное наваждение» (1981), «Церковь» (1989). В свое время он был женат на актрисе Мартин Бесуик. Страстью актера было коллекционирование автомобилей. Он играл до тех пор, пока машины в качестве гонорара включались в контракт. Но когда этот пункт ушел в небытие, Джон ушел из кино. Сейчас он занимается фотографией и живет в небольшом английском городке. Режиссер Питер Хант рассказывал, что Ричардсон претендовал на роль Джеймса Бонда в картине «На секретной службе ее величества» (1969). Другими претендентами были Адам Уэст, Рой Финнс, Роберт Кэмпбелл, Энтони Роджерс, Ганс Де Врис. Но роль ушла Джорджу Лезенби. В испанском прокате фильм собрал более 11 миллионов испанских песо
Доп. информация: Диск из собственной колекции.
Большое спасибо den904
Бонусы: Трейлеры, слайд-шоу, биографии.
Сэмпл: http://sendfile.su/1156245
Тип релиза: DVD9 (Custom)
Контейнер: DVD-Video
Видео: PAL 4:3 (720x576) VBR Auto Pan&Scan
Аудио: Russian (Dolby AC3, 192 Кбит/сек, 2 ch)
Аудио 2: Italiano (Dolby AC3, 320 Кбит/сек, 2 ch)
Аудио 3: Deutsch (Dolby AC3, 448 Кбит/сек, 6 ch)
Аудио 4: Deutsch (Dolby AC3, 224 Кбит/сек, 2 ch)
Аудио 4: English (Dolby AC3, 224 Кбит/сек, 2 ch)

DVDInfo

Size: 4.61 Gb ( 4 836 562 KBytes ) - DVD-9
Enabled regions: 1, 2, 3, 4, 5, 6, 7, 8
VTS_01 :
Play Length: 00:00:04
Video: PAL 4:3 (720x576) VBR
Audio:
Deutsch (Dolby AC3, 6 ch)
VTS_02 :
Play Length: 00:00:18
Video: PAL 4:3 (720x576) VBR
Audio:
Deutsch (Dolby AC3, 2 ch)
VTS_03 :
Play Length: 00:00:35
Video: PAL 4:3 (720x576) VBR
Audio:
Deutsch (Dolby AC3, 6 ch)
VTS_04 :
Play Length: 00:00:19
Video: PAL 4:3 (720x576) VBR
Audio:
Deutsch (Dolby AC3, 6 ch)
Deutsch (Dolby AC3, 6 ch)
English (Dolby AC3, 6 ch)
VTS_05 :
Play Length: 01:28:26
Video: PAL 4:3 (720x576) VBR, Auto Pan&Scan
Audio:
Russian (Dolby AC3, 2 ch)
Italiano (Dolby AC3, 2 ch)
Deutsch (Dolby AC3, 6 ch)
Deutsch (Dolby AC3, 2 ch)
English (Dolby AC3, 2 ch)
VTS_06 :
Play Length: 00:01:33
Video: PAL 4:3 (720x576) VBR
Audio:
Deutsch (Dolby AC3, 2 ch)
VTS_07 :
Play Length: 00:01:30
Video: PAL 4:3 (720x576) VBR
VTS_08 :
Play Length: 00:05:04
Video: PAL 4:3 (720x576) VBR
VTS_09 :
Play Length: 00:02:24
Video: PAL 4:3 (720x576) VBR
Audio:
Deutsch (Dolby AC3, 2 ch)
VTS_10 :
Play Length: 00:01:08
Video: PAL 4:3 (720x576) VBR
Audio:
Deutsch (Dolby AC3, 2 ch)
VTS_11 :
Play Length: 00:01:26
Video: PAL 4:3 (720x576) VBR
Audio:
Deutsch (Dolby AC3, 2 ch)
VTS_12 :
Play Length: 00:01:29
Video: PAL 4:3 (720x576) VBR
Audio:
Deutsch (Dolby AC3, 2 ch)
VTS_13 :
Play Length: 00:01:45
Video: PAL 4:3 (720x576) VBR
Audio:
Deutsch (Dolby AC3, 2 ch)
VTS_14 :
Play Length: 00:01:38
Video: PAL 4:3 (720x576) VBR
Audio:
Deutsch (Dolby AC3, 2 ch)
Menu Video:
PAL 4:3 (720x576) VBR
Menu English Language Unit :
Root Menu

MediaInfo

Общее
Полное имя : J:\Gatti rossi in un labirinto di vetro_1975\VIDEO_TS\VTS_05_1.VOB
Формат : MPEG-PS
Размер файла : 1024 Мбайт
Продолжительность : 22 м.
Режим общего битрейта : Переменный
Общий поток : 6469 Кбит/сек
Видео
Идентификатор : 224 (0xE0)
Формат : MPEG Video
Версия формата : Version 2
Профиль формата : Main@Main
Параметр BVOP формата : Да
Параметр матрицы формата : Выборочная
Параметр GOP формата : M=3, N=12
Продолжительность : 22 м.
Вид битрейта : Переменный
Максимальный битрейт : 8000 Кбит/сек
Ширина : 720 пикселей
Высота : 576 пикселей
Соотношение сторон : 4:3
Частота кадров : 25,000 кадров/сек
Стандарт вещания : PAL
Цветовое пространство : YUV
Субдискретизация насыщенности : 4:2:0
Битовая глубина : 8 бит
Тип развёртки : Чересстрочная
Порядок развёртки : Верхнее поле первое
Метод сжатия : С потерями
Аудио #1
Идентификатор : 189 (0xBD)-128 (0x80)
Формат : AC-3
Формат/Информация : Audio Coding 3
Расширение режима : CM (complete main)
Параметр Endianness формата : Big
Режим смешивания : DVD-Video
Продолжительность : 22 м.
Вид битрейта : Постоянный
Битрейт : 192 Кбит/сек
Каналы : 2 канала
Расположение каналов : Front: L R
Частота : 48,0 КГц
Битовая глубина : 16 бит
Метод сжатия : С потерями
Задержка видео : -80 мс.
Размер потока : 30,4 Мбайт (3%)
Аудио #2
Идентификатор : 189 (0xBD)-129 (0x81)
Формат : AC-3
Формат/Информация : Audio Coding 3
Расширение режима : CM (complete main)
Параметр Endianness формата : Big
Режим смешивания : DVD-Video
Продолжительность : 22 м.
Вид битрейта : Постоянный
Битрейт : 320 Кбит/сек
Каналы : 2 канала
Расположение каналов : Front: L R
Частота : 48,0 КГц
Битовая глубина : 16 бит
Метод сжатия : С потерями
Задержка видео : -80 мс.
Размер потока : 50,6 Мбайт (5%)
Аудио #3
Идентификатор : 189 (0xBD)-130 (0x82)
Формат : AC-3
Формат/Информация : Audio Coding 3
Расширение режима : CM (complete main)
Параметр Endianness формата : Big
Режим смешивания : DVD-Video
Продолжительность : 22 м.
Вид битрейта : Постоянный
Битрейт : 448 Кбит/сек
Каналы : 6 каналов
Расположение каналов : Front: L C R, Side: L R, LFE
Частота : 48,0 КГц
Битовая глубина : 16 бит
Метод сжатия : С потерями
Задержка видео : -80 мс.
Размер потока : 70,9 Мбайт (7%)
Аудио #4
Идентификатор : 189 (0xBD)-131 (0x83)
Формат : AC-3
Формат/Информация : Audio Coding 3
Профиль формата : Dolby Digital
Расширение режима : CM (complete main)
Параметр Endianness формата : Big
Режим смешивания : DVD-Video
Продолжительность : 22 м.
Вид битрейта : Постоянный
Битрейт : 224 Кбит/сек
Каналы : 2 канала
Расположение каналов : Front: L R
Частота : 48,0 КГц
Битовая глубина : 16 бит
Метод сжатия : С потерями
Задержка видео : -80 мс.
Размер потока : 35,5 Мбайт (3%)
Аудио #5
Идентификатор : 189 (0xBD)-132 (0x84)
Формат : AC-3
Формат/Информация : Audio Coding 3
Расширение режима : CM (complete main)
Параметр Endianness формата : Big
Режим смешивания : DVD-Video
Продолжительность : 22 м.
Вид битрейта : Постоянный
Битрейт : 224 Кбит/сек
Каналы : 2 канала
Расположение каналов : Front: L R
Частота : 48,0 КГц
Битовая глубина : 16 бит
Метод сжатия : С потерями
Задержка видео : -80 мс.
Размер потока : 35,5 Мбайт (3%)
Аудио #6
Идентификатор : 197 (0xC5)
Формат : MPEG Audio
Метод сжатия : С потерями
Меню

Скриншоты меню

Скриншоты


_________________
Показать сообщения:    

Текущее время: Сегодня 02:34

Часовой пояс: GMT



Вы не можете начинать темы
Вы не можете отвечать на сообщения
Вы не можете редактировать свои сообщения
Вы не можете удалять свои сообщения
Вы не можете голосовать в опросах
Вы не можете прикреплять файлы к сообщениям
Вы не можете скачивать файлы