Важное объявление!
У Нас Все раздачи мультитрекерные, при нуле пиров в релизах, можете смело вставать на закачку!
 
Автор Сообщение

HUNTER

Стаж:
4 года 4 месяца
Сообщений:
56734

Репутация: 101

[+] [-]
Вне форума [Профиль] [ЛС]

Глухой квартал / The Wood
Страна: США
Студия: Bona Fide Productions, MTV Films
Жанр: драма, мелодрама, комедия
Год выпуска: 1999
Продолжительность: 01:46:45
Перевод: Профессиональный (многоголосый закадровый)
Cубтитры: английские
Оригинальная аудиодорожка: английский
Режиссер: Рик Фамуйива / Rick Famuyiwa
В ролях: Элан Тэйлор, Омар Эппс, Ричард Т. Джонс, Шон Нельсон, Дуан Финли, Трент Камерон, Малинда Уильямс, Патриция Белчер, Тэй Диггз, Тамала Джонс, Яша Вашингтон
Описание: Женитьба, как известно, шаг серьезный. Но когда два твоих лучших друга, разряженных в пух и прах, за три часа до свадьбы застают тебя мертвецки пьяным у девицы очень отдаленно напоминающей невесту, жди проблем. Так, к сожалению, и случилось с парнем по имени Роланд.
Однако, его товарищи не бросят своего собрата в беде и не допустят, чтобы досадные обстоятельства разрушили помолвку. Ведь Майк и Слим дружат с Роландом с незапамятных времен. Все трое вместе ходили в одну школу в пригороде Лос-Анджелеса — Инглвуде, который сокращенно называют просто «Вуд».
В этом глухом, черном квартале друзья вместе постигали всю азбуку жизни: от наркотиков и ареста до первого поцелуя и любви. Так неужели они дадут пропасть своему товарищу в этот суматошный и безумный день его свадьбы?!


Sample
Тип релиза: WEB-DL 1080p
Контейнер: MKV
Видео: MPEG4 AVC Video, H264, 16:9, 1908x1076, 23.976 fps, 5025 kbps
Аудио: Russian (AC3, 2 ch, 192 kbps, 16 bits, 48.0 KHz) - MVO c VHSRip by Platinum User
Аудио 2: English (AC3, 6 ch, 448 kbps, 16 bits, 48.0 KHz) - оригинал
Формат субтитров: softsub (SRT)

MediaInfo

General
Unique ID : 253825188383641049234384079968267688018 (0xBEF4F3FE04F7D8FF90CE11F910F85852)
Complete name : E:\1\The Wood 1999 WEB-DL 1080p.mkv
Format : Matroska
Format version : Version 4 / Version 2
File size : 4.31 GiB
Duration : 1h 46mn
Overall bit rate : 5 780 Kbps
Encoded date : UTC 2014-08-18 01:47:52
Writing application : mkvmerge v6.1.0 ('Old Devil') built on Mar 2 2013 14:32:37
Writing library : libebml v1.3.0 + libmatroska v1.4.0
Video
ID : 1
Format : AVC
Format/Info : Advanced Video Codec
Format profile : High@L4.0
Format settings, CABAC : Yes
Format settings, ReFrames : 4 frames
Codec ID : V_MPEG4/ISO/AVC
Duration : 1h 46mn
Bit rate : 5 025 Kbps
Width : 1 908 pixels
Height : 1 076 pixels
Display aspect ratio : 16:9
Frame rate mode : Constant
Frame rate : 23.976 fps
Color space : YUV
Chroma subsampling : 4:2:0
Bit depth : 8 bits
Scan type : Progressive
Bits/(Pixel*Frame) : 0.102
Stream size : 3.75 GiB (87%)
Language : English
Default : Yes
Forced : No
Color primaries : BT.709
Transfer characteristics : BT.709
Matrix coefficients : BT.709
Audio #1
ID : 2
Format : AC-3
Format/Info : Audio Coding 3
Mode extension : CM (complete main)
Format settings, Endianness : Big
Codec ID : A_AC3
Duration : 1h 46mn
Bit rate mode : Constant
Bit rate : 192 Kbps
Channel count : 2 channels
Channel positions : Front: L R
Sampling rate : 48.0 KHz
Bit depth : 16 bits
Compression mode : Lossy
Stream size : 147 MiB (3%)
Title : MVO
Language : Russian
Default : Yes
Forced : No
Audio #2
ID : 3
Format : AC-3
Format/Info : Audio Coding 3
Mode extension : CM (complete main)
Format settings, Endianness : Big
Codec ID : A_AC3
Duration : 1h 46mn
Bit rate mode : Constant
Bit rate : 448 Kbps
Channel count : 6 channels
Channel positions : Front: L C R, Side: L R, LFE
Sampling rate : 48.0 KHz
Bit depth : 16 bits
Compression mode : Lossy
Stream size : 342 MiB (8%)
Language : English
Default : No
Forced : No
Text
ID : 4
Format : UTF-8
Codec ID : S_TEXT/UTF8
Codec ID/Info : UTF-8 Plain Text
Language : English
Default : No
Forced : No
Menu
00:00:00.000 : en:Way Back When
00:05:25.000 : en:New Kid In Town
00:08:18.000 : en:Alicia
00:11:00.000 : en:Drunk Punk
00:15:43.000 : en:Booty Grab
00:22:25.000 : en:Dance Fever
00:28:55.000 : en:Tic Tacs
00:34:16.000 : en:Big Mike
00:43:05.000 : en:Party Of All Parties
00:53:32.000 : en:Clean Up Hose Down
01:00:54.000 : en:The Bet
01:27:53.000 : en:Man And Wife
01:35:18.000 : en:To The Wood

Скриншоты


_________________
Показать сообщения:    

Текущее время: Сегодня 08:25

Часовой пояс: GMT



Вы не можете начинать темы
Вы не можете отвечать на сообщения
Вы не можете редактировать свои сообщения
Вы не можете удалять свои сообщения
Вы не можете голосовать в опросах
Вы не можете прикреплять файлы к сообщениям
Вы не можете скачивать файлы