Важное объявление!
У Нас Все раздачи мультитрекерные, при нуле пиров в релизах, можете смело вставать на закачку!
 
Автор Сообщение

HUNTER

Стаж:
4 года 4 месяца
Сообщений:
56755

Репутация: 101

[+] [-]
Вне форума [Профиль] [ЛС]

Глобальный кризис / серии 1-17 из 17
-Название: Глобальный кризис
Год выпуска: 2009-2012
Страна: Россия, Израиль
Производство: Ari Films
Жанр: телепередача
Продолжительность: 11:04:58
Перевод: оригинал (русский язык)
Субтитры: нет-В ролях: М. Лайтман, К. Кальченко, С. Жданко, И. Винокур, А. Ульянов, Л. Макарон, С. Белицкий, С. Богнер
Режиссёр: Семён Винокур-Описание: Глобальный кризис, охвативший все сферы жизнедеятельности, свидетельствует, что мир отработал современную ступень развития. Кризис – ни что иное, как показатель готовности мира подняться на следующий уровень, находящийся над нашей материей.-Качество: WEB-DLRip
Формат: AVI
Видеокодек: XviD
Аудиокодек: MP3
Видео: 720 x 400, 25,000 fps, ~ 1000 Kbps, ~ 0.140 bit/pixel
Аудио: 44,1 kHz, 2 (L,R) ch, 128 kb/s-Аудиоверсия телепередачи Глобальный кризис / выпуски 1-17 из 17

Скриншоты

MediaInfo

ОбщееПолное имя : teleprogramma.Globalnyj_krizis.avi\В чём причина.aviФормат : AVIФормат/Информация : Audio Video InterleaveРазмер файла : 373 МбайтПродолжительность : 45 м.Общий поток : 1141 Кбит/секПрограмма кодирования : Lavf52.93.0
ВидеоИдентификатор : 0Формат : xvidИдентификатор кодека : xvidПродолжительность : 45 м.Битрейт : 1001 Кбит/секШирина : 720 пикселейВысота : 400 пикселейСоотношение сторон : 16:9Частота кадров : 25,000 кадров/секБит/(Пиксели*Кадры) : 0.139Размер потока : 327 Мбайт (88%)
АудиоИдентификатор : 1Формат : MPEG AudioВерсия формата : Version 1Профиль формата : Layer 3Режим : Joint stereoРасширение режима : MS StereoИдентификатор кодека : 55Идентификатор кодека/Подсказка : MP3Продолжительность : 45 м.Вид битрейта : ПостоянныйБитрейт : 128 Кбит/секКаналы : 2 каналаЧастота : 44,1 КГцМетод сжатия : С потерямиРазмер потока : 41,8 Мбайт (11%)Выравнивание : Соединение по промежуткамПродолжительность промежутка : 26 мс. (0,65 видеокадр)Библиотека кодирования : LAME3.98.4

Список серий


01 В чём причина - (45:41)
02 Взгляд в никуда - (28:55)
03 Глазами очевидца - (37:21)
04 Дефицит неограниченных ресурсов - (47:37)
05 К экономике разумных потребностей - (29:39)
06 Кризис желаний - (45:43)
07 Кризис современной науки - (56:46)
08 Новая ступень - (29:41)
09 Новое поколение - (27:08)
10 Новый мировой экономический порядок - (30:00)
11 Образование и СМИ - (27:47)
12 Программа действий - (30:32)
13 Пучина кризисов - как подготовиться - (47:31)
14 Эккспериментальный город - воспитание - (47:13)
15 Эккспериментальный город - выход из кризиса - (45:44)
16 Эккспериментальный город - образование - (45:44)
17 Экономика нового мира - (41:47)

_________________
Показать сообщения:    

Текущее время: Сегодня 15:54

Часовой пояс: GMT



Вы не можете начинать темы
Вы не можете отвечать на сообщения
Вы не можете редактировать свои сообщения
Вы не можете удалять свои сообщения
Вы не можете голосовать в опросах
Вы не можете прикреплять файлы к сообщениям
Вы не можете скачивать файлы