Важное объявление!
У Нас Все раздачи мультитрекерные, при нуле пиров в релизах, можете смело вставать на закачку!
 
Автор Сообщение

mihis

[Профиль] [ЛС]

Гладиатор / Gladiator«Against all odds, they became friends. Against their will, they became opponents.»Год выпуска: 1992
Страна: США
Жанр: боевик, драма, спорт
Продолжительность: 01:41:56
Перевод: 2 Профессиональный (многоголосый, закадровый) + Авторский (Вартан Дохалов) + Оригинал
Субтитры: Русские, Английские (внешние, *.srt)
Режиссер: Рауди Херрингтон
В ролях: Джеймс Маршалл, Кьюба Гудинг-младший, Роберт Лоджиа, Оззи Дэвис, Кэра Буоно, Джон Седа, Т. И. Расселл, Дебра Сэндлунд, Лэнс Слотер, Брайа и др.
Описание: Подпольный боксерский ринг, где не существует правил, и каждая схватка может оказаться последней. Лучшие друзья Джеймс и Линкольн — восходящие звезды кровавого спорта. Один дерется, чтобы отдать долг своего отца, другой — чтобы выбраться из негритянского гетто. Но на пути чемпионов встает жестокий устроитель боев.
Он нашел каждому из них идеального, по его мнению, соперника: в решающем бою Джеймс и Линкольн должны встретиться друг с другом.

Качество: DVDRip
Формат: AVI
Видео кодек: XviD
Аудио кодек: AC3
Видео: 704x400 (1.76:1), 23.976 fps, XviD build 65 ~1840 kbps avg, 0.27 bit/pixel
Audio№1: 48 kHz, AC3 Dolby Digital, 2/0 (L,R) ch, ~192.00 kbps avg |Многоголосый| ОРТ
Audio№2: 48 kHz, AC3 Dolby Digital, 2/0 (L,R) ch, ~192.00 kbps avg |Многоголосый| Отдельно
Audio№3: 48 kHz, AC3 Dolby Digital, 2/0 (L,R) ch, ~192.00 kbps avg |Авторский| Отдельно
Audio№4: 48 kHz, AC3 Dolby Digital, 2/0 (L,R) ch, ~192.00 kbps avg |Английский| Отдельно

MediaInfo

Complete name : D:\Video\Gladiator.1992.RUS.DVDRip.XviD.AC3.-Ermac\Gladiator.1992.RUS.DVDRip.XviD.AC3.-Ermac.avi
Format : AVI
Format/Info : Audio Video Interleave
File size : 1.45 GiB
Duration : 1h 41mn
Overall bit rate : 2 042 Kbps
Movie name : Gladiator (1992)
Director : Ermac [1/3 DVD-R, DVD5]
Writing application : VirtualDubModRus 1.5.10.2 (build 2542/release)
Copyright : http://forum.hellywood.ru/
Video
ID : 0
Format : MPEG-4 Visual
Format profile : Advanced Simple@L5
Format settings, BVOP : 2
Format settings, QPel : No
Format settings, GMC : No warppoints
Format settings, Matrix : Custom
Codec ID : XVID
Codec ID/Hint : XviD
Duration : 1h 41mn
Bit rate : 1 840 Kbps
Width : 704 pixels
Height : 400 pixels
Display aspect ratio : 16:9
Frame rate : 23.976 fps
Color space : YUV
Chroma subsampling : 4:2:0
Bit depth : 8 bits
Scan type : Progressive
Compression mode : Lossy
Bits/(Pixel*Frame) : 0.273
Stream size : 1.31 GiB (90%)
Writing library : XviD 65
Audio
ID : 1
Format : AC-3
Format/Info : Audio Coding 3
Mode extension : CM (complete main)
Format settings, Endianness : Big
Codec ID : 2000
Duration : 1h 41mn
Bit rate mode : Constant
Bit rate : 192 Kbps
Channel(s) : 2 channels
Channel positions : Front: L R
Sampling rate : 48.0 KHz
Bit depth : 16 bits
Compression mode : Lossy
Stream size : 140 MiB (9%)
Alignment : Split accross interleaves
Interleave, duration : 42 ms (1.00 video frame)
Interleave, preload duration : 500 ms
Audio 2
Format : AC-3
Format/Info : Audio Coding 3
Mode extension : CM (complete main)
Format settings, Endianness : Big
Duration : 1h 41mn
Bit rate mode : Constant
Bit rate : 192 Kbps
Channel(s) : 2 channels
Channel positions : Front: L R
Sampling rate : 48.0 KHz
Bit depth : 16 bits
Compression mode : Lossy
Stream size : 140 MiB (100%)
Audio 3
Format : AC-3
Format/Info : Audio Coding 3
Format profile : Dolby Digital
Mode extension : CM (complete main)
Format settings, Endianness : Big
Duration : 1h 41mn
Bit rate mode : Constant
Bit rate : 192 Kbps
Channel(s) : 2 channels
Channel positions : Front: L R
Sampling rate : 48.0 KHz
Bit depth : 16 bits
Compression mode : Lossy
Stream size : 140 MiB (100%)
Audio 4
Format : AC-3
Format/Info : Audio Coding 3
Mode extension : CM (complete main)
Format settings, Endianness : Big
Duration : 1h 41mn
Bit rate mode : Constant
Bit rate : 192 Kbps
Channel(s) : 2 channels
Channel positions : Front: L R
Sampling rate : 48.0 KHz
Bit depth : 16 bits
Compression mode : Lossy
Stream size : 140 MiB (100%)
Gladiator.1992.RUS.DVDRip.XviD.AC3.-Ermac.RUS.srt
File size : 153 KiB
Gladiator.1992.RUS.DVDRip.XviD.AC3.-Ermac.ENG.srt
File size : 150 KiB
 
Показать сообщения:    

Текущее время: Сегодня 13:21

Часовой пояс: GMT



Вы не можете начинать темы
Вы не можете отвечать на сообщения
Вы не можете редактировать свои сообщения
Вы не можете удалять свои сообщения
Вы не можете голосовать в опросах
Вы не можете прикреплять файлы к сообщениям
Вы не можете скачивать файлы