Важное объявление!
У Нас Все раздачи мультитрекерные, при нуле пиров в релизах, можете смело вставать на закачку!
 
Автор Сообщение

димитри37

Стаж:
3 года 9 месяцев
Сообщений:
1237

Репутация: 127

[+] [-]
Вне форума [Профиль] [ЛС]

Главный придурок / Глава правления / Chairman of the Board
Год выпуска: 1998
Страна: США
Жанр: комедия
Продолжительность: 01:35:50
Перевод: Профессиональный (многоголосый закадровый)
Русские субтитры: нет
Режиссер: Алекс Замм / Alex Zamm
В ролях: Кэррот Топ, Кортни Торн-Смит, Ларри Миллер, Рэкел Уэлч, Mystro Clark, Джек Плотник, Джек Уорден, Эстелль Харрис, Билл Эрвин, М. Эммет Уолш
Описание: Кэррот Топ предстает перед в роли забавного изобретателя Эдисона, однофамильца отца электричества. Его изобретения никому, кроме него самого, не нужны и он еле сводит концы с концами. Но случай сводит его с миллионером Макмилланом — известным индустриальным магнатом.
Между странной парочкой возникает дружба. Каково же было удивление Эдисона, когда старик — миллионер, внезапно умирая, оставил ему по завещанию огромное состояние и весь свой бизнес! И недотепа Эдисон становится «Большим Боссом». Его изобретения начинают завоевывать огромный успех, в то время как конкуренты всемя возможными способами пытаются ему навредить...

Качество: DVDRip / Исходник DVD5
Формат: AVI
Видео кодек: XviD
Видео: 688x368 (1.87:1), 23.976 fps, XviD build 73 ~947 kbps avg, 0.16 bit/pixel
Аудио: 48 kHz, MPEG Layer 3, 2 ch, ~128.00 kbps avg

МИ

General
Complete name : D:\TORRENTS for WORK\RIPS in WORK\Glavniy_Pridurok__DVDRip_Menen.avi
Format : AVI
Format/Info : Audio Video Interleave
File size : 743 MiB
Duration : 1h 35mn
Overall bit rate : 1 085 Kbps
Movie name : Glavniy_Pridurok__DVDRip_Menen
Director : Menen
Writing application : VirtualDubMod 1.5.10.2 (build 2540/release)
Video
ID : 0
Format : MPEG-4 Visual
Format profile : Advanced Simple@L5
Format settings, BVOP : 1
Format settings, QPel : No
Format settings, GMC : No warppoints
Format settings, Matrix : Custom
Codec ID : XVID
Codec ID/Hint : XviD
Duration : 1h 35mn
Bit rate : 947 Kbps
Width : 688 pixels
Height : 368 pixels
Display aspect ratio : 1.85:1
Frame rate : 23.976 fps
Color space : YUV
Chroma subsampling : 4:2:0
Bit depth : 8 bits
Scan type : Progressive
Compression mode : Lossy
Bits/(Pixel*Frame) : 0.156
Stream size : 649 MiB (87%)
Writing library : XviD 73
Audio
ID : 1
Format : MPEG Audio
Format version : Version 1
Format profile : Layer 3
Codec ID : 55
Codec ID/Hint : MP3
Duration : 1h 35mn
Bit rate mode : Constant
Bit rate : 128 Kbps
Channel(s) : 2 channels
Sampling rate : 48.0 KHz
Compression mode : Lossy
Stream size : 87.7 MiB (12%)
Alignment : Aligned on interleaves
Interleave, duration : 42 ms (1.00 video frame)
Interleave, preload duration : 504 ms
Writing library : LAME3.99r
Encoding settings : -m s -V 4 -q 2 -lowpass 17 -b 128

Скриншоты


Показать сообщения:    

Текущее время: Сегодня 13:44

Часовой пояс: GMT



Вы не можете начинать темы
Вы не можете отвечать на сообщения
Вы не можете редактировать свои сообщения
Вы не можете удалять свои сообщения
Вы не можете голосовать в опросах
Вы не можете прикреплять файлы к сообщениям
Вы не можете скачивать файлы