Важное объявление!
У Нас Все раздачи мультитрекерные, при нуле пиров в релизах, можете смело вставать на закачку!
 
Автор Сообщение

HUNTER

Стаж:
4 года 4 месяца
Сообщений:
56808

Репутация: 101

[+] [-]
Вне форума [Профиль] [ЛС]

Гибель линкора «Ройял Оук» / The Sinking of The Royal Oak
Год выпуска: 2009
Страна: Великобритания / History channel
Жанр: Документальный, историческое исследование, ВМФ
Продолжительность: 00:46:16
Перевод: Одноголосый закадровый
Описание: С помощью последних кто остался в живых фильм расскажет всю историю гибели линкора Ройял Оук, одной из самых больших потерь британского флота и первой пропагандистской победы Гитлера во Второй Мировой Войне...
14 октября 1939 года, с началом прилива, немецкая подлодка «U-47» (командир капитан-лейтенант Гюнтер Прин) благополучно проскользнула на рейд якорной стоянки Скапа-Флоу. В одном из кораблей противника Прин узнал английский линкор «Royal Oak», другим было вспомогательное судно «Pegasus».
«Royal Oak» ввиду своего пожилого возраста использовался как плавучая зенитная батарея, а его мощные орудия должны были прикрывать близлежащую акваторию. В это время на «Royal Oak» было 1200 человек экипажа, 200 из которых находились на вахте. В 1:04 14 октября прозвучал взрыв. Большинство из экипажа корабля решило, что это следствие атаки самолёта. Через несколько минут раздались ещё несколько взрывов. Корабль начал быстро крениться на правый борт. В 1:29 минут корабль перевернулся и затонул. Погибло 833 моряка.
Доп. информация: DVDRip by alf62
БОЛЬШОЕ СПАСИБО за первоисточник DVB - Black_Scorpion_666: http://rutracker.org/forum/viewtopic.php?t=4498790

Качество: DVBRip
Формат: AVI
Видео: 704x528 (1.33:1), 25 fps, DivX, ~1673 kbps avg, 0.18 bit/pixel
Аудио: 48 kHz, Microsoft MPEG, 2 ch, ~128.00 kbps avg

MediaInfo

General
Complete name : E:\Торенты\Rutracker.org\Гибель линкора Ройял Оук\Gibel.linkora.Rojjal.Ouk.2009.DVBRip.alf62.avi
Format : AVI
Format/Info : Audio Video Interleave
File size : 599 MiB
Duration : 46mn 16s
Overall bit rate : 1 811 Kbps
Writing application : VirtualDubMod 1.5.10.3 | www.virtualdub-fr.org || (build 2550/release)
Writing library : VirtualDubMod build 2550/release
Video
ID : 0
Format : MPEG-4 Visual
Format profile : Advanced Simple@L5
Format settings, BVOP : 1
Format settings, QPel : No
Format settings, GMC : No warppoints
Format settings, Matrix : Default (MPEG)
Codec ID : DX50
Codec ID/Hint : DivX 5
Duration : 46mn 16s
Bit rate : 1 674 Kbps
Width : 704 pixels
Height : 528 pixels
Display aspect ratio : 4:3
Frame rate : 25.000 fps
Color space : YUV
Chroma subsampling : 4:2:0
Bit depth : 8 bits
Scan type : Progressive
Compression mode : Lossy
Bits/(Pixel*Frame) : 0.180
Stream size : 554 MiB (92%)
Writing library : XviD 73
Audio
ID : 1
Format : MPEG Audio
Format version : Version 1
Format profile : Layer 2
Codec ID : 50
Duration : 46mn 15s
Bit rate mode : Constant
Bit rate : 128 Kbps
Channel(s) : 2 channels
Sampling rate : 48.0 KHz
Compression mode : Lossy
Stream size : 42.4 MiB (7%)
Alignment : Aligned on interleaves
Interleave, duration : 40 ms (1.00 video frame)
Interleave, preload duration : 504 ms

Скриншоты



_________________
Показать сообщения:    

Текущее время: Сегодня 08:49

Часовой пояс: GMT



Вы не можете начинать темы
Вы не можете отвечать на сообщения
Вы не можете редактировать свои сообщения
Вы не можете удалять свои сообщения
Вы не можете голосовать в опросах
Вы не можете прикреплять файлы к сообщениям
Вы не можете скачивать файлы