Важное объявление!
У Нас Все раздачи мультитрекерные, при нуле пиров в релизах, можете смело вставать на закачку!
 
Автор Сообщение

HUNTER

Стаж:
4 года 4 месяца
Сообщений:
56719

Репутация: 101

[+] [-]
Вне форума [Профиль] [ЛС]

Гибель линкора Ройял Оук / The Sinking of The Royal Oak-
Год выпуска: 2009
Страна: Великобритания
Жанр: Документальный
Продолжительность: 00:46:15
Перевод: Одноголосый закадровый
Русские субтитры: нет
Описание: С помощью последних кто остался в живых фильм расскажет всю историю гибели линкора Ройял Оук, одной из самых больших потерь британского флота и первой пропагандистской победы Гитлера во Второй Мировой Войне...
качество: DVB by BS666 Сэмпл
формат: TS
Видео: MPEG2 | 720x576@1024x576 (16:9) | ~3 409 Kbps | 25.000 fps | ~0.329bits/pix
Аудио: MP2 | 48KHz | 2.0 (2ch) | 128 kbps [RUS/ENG]

MediaInfo

General
Идентификатор : 1 (0x1)
Полное имя : H:\REC IPTV\History\The.Sinking.of.The.Royal.Oak.2009.DVB.MPEG2-BS666.ts
Формат : MPEG-TS
Размер файла : 1.25 GiB
Продолжительность : 46mn 15s
Режим общего битрейта : Variable
Общий поток : 3 858 Kbps
Максимальный общий битрейт : 35.5 Mbps
Video
Идентификатор : 4113 (0x1011)
Идентификатор меню : 1 (0x1)
Формат : MPEG Video
Версия формата : Version 2
Профиль формата : Main@Main
Параметр BVOP формата : Yes
Параметр матрицы формата : Custom
Параметр GOP формата : M=3, N=12
Идентификатор кодека : 2
Продолжительность : 46mn 16s
Вид битрейта : Variable
Битрейт : 3 409 Kbps
Максимальный битрейт : 15.0 Mbps
Ширина : 720 pixels
Высота : 576 pixels
Соотношение сторон : 16:9
Частота кадров : 25.000 fps
Стандарт вещания : PAL
Цветовое пространство : YUV
Субдискретизация насыщенности : 4:2:0
Битовая глубина : 8 bits
Тип развёртки : Interlaced
Порядок развёртки : Top Field First
Метод сжатия : Lossy
Бит/(Пиксели*Кадры) : 0.329
Размер потока : 1.10 GiB (88%)
Audio #1
Идентификатор : 4352 (0x1100)
Идентификатор меню : 1 (0x1)
Формат : MPEG Audio
Версия формата : Version 1
Профиль формата : Layer 2
Идентификатор кодека : 4
Продолжительность : 46mn 15s
Вид битрейта : Constant
Битрейт : 128 Kbps
Каналы : 2 channels
Частота : 48.0 KHz
Метод сжатия : Lossy
Размер потока : 42.4 MiB (3%)
Язык : Russian
Audio #2
Идентификатор : 4353 (0x1101)
Идентификатор меню : 1 (0x1)
Формат : MPEG Audio
Версия формата : Version 1
Профиль формата : Layer 2
Идентификатор кодека : 4
Продолжительность : 46mn 16s
Вид битрейта : Constant
Битрейт : 128 Kbps
Каналы : 2 channels
Частота : 48.0 KHz
Метод сжатия : Lossy
Размер потока : 42.4 MiB (3%)
Язык : English

Скриншоты

Анаморф Скриншоты


-
-
-

_________________
Показать сообщения:    

Текущее время: Сегодня 00:49

Часовой пояс: GMT



Вы не можете начинать темы
Вы не можете отвечать на сообщения
Вы не можете редактировать свои сообщения
Вы не можете удалять свои сообщения
Вы не можете голосовать в опросах
Вы не можете прикреплять файлы к сообщениям
Вы не можете скачивать файлы