Важное объявление!
У Нас Все раздачи мультитрекерные, при нуле пиров в релизах, можете смело вставать на закачку!
 
Автор Сообщение

HUNTER

Стаж:
4 года 4 месяца
Сообщений:
56734

Репутация: 101

[+] [-]
Вне форума [Профиль] [ЛС]

Гибель "Курска". Следственный эксперимент
Дата/Год выпуска: 12.08.2015
Страна: Россия
Жанр: Документальный
Продолжительность: 00:40:56
Перевод: Не требуется
Телеканал: Звезда
Описание: 15 лет прошло с момента гибели атомной подводной лодки "Курск". До сих пор пишутся книги, снимаются фильмы, вспоминаются погибшие моряки. Казалось бы, "Курск" - давно уже история. Но масштаб катастрофы и переживание этого горя всей страной - не отпускают...
Почти два года длилось расследование этой катастрофы. Отрабатывались разные версии гибели субмарины. Рассматривались даже самые фантастические. Все это делалось для того, чтобы прийти к единственно верной.
Вместе с участниками того сложного, долгого и очень важного для страны дела: следователями, конструкторами, судебно-медицинскими экспертами мы еще раз пройдем все этапы следствия. Вместе со зрителем - разберем и отвергнем различные версии и убедимся в правильности окончательной версии.
И, конечно, вспомним погибших моряков. За 15 лет их дети выросли, многие продолжили дело отцов и пошли на флот. В морских училищах и в списках экипажей судов и подводных лодок, по-прежнему, звучат фамилии тех, кто боролся за свою жизнь и жизнь друзей, и кого было невозможно спасти...
Сэмпл
Качество: DVB-T2
Формат: TS
Видео кодек: AVC
Аудио кодек: MP2
Видео: AVC, 720x576 (4:3), 2726 kbps, 25.00fps, Bits/(Pixel*Frame) : 0.263
Аудио: MP2, 2 ch, 48,0 КГц, 192 kbps

MediaInfo

D:\видео\Гибель Курска-Следственный эксперимент.ts General #1 ID : 1 (0x1) Complete name : D:\видео\Гибель Курска-Следственный эксперимент.ts Format : MPEG-TS File size : 900 MiB Duration : 40mn 56s Overall bit rate : 3 072 Kbps Video #2071 ID : 2071 (0x817) Menu ID : 1 (0x1) Format : AVC Format/Info : Advanced Video Codec Format profile : Main@L3.0 Format settings, CABAC : Yes Format settings, ReFrames : 3 frames Format settings, GOP : M=4, N=28 Codec ID : 27 Duration : 40mn 56s Bit rate : 2 726 Kbps Width : 720 pixels Height : 576 pixels Display aspect ratio : 4:3 Frame rate : 25.000 fps Standard : Component Color space : YUV Chroma subsampling : 4:2:0 Bit depth : 8 bits Scan type : Interlaced Scan order : Top Field First Bits/(Pixel*Frame) : 0.263 Stream size : 798 MiB (89%) Color primaries : BT.470-6 System B, BT.470-6 System G, BT.601-6 625, BT.1358 625, BT.1700 625 PAL, BT.1700 625 SECAM Transfer characteristics : BT.470-6 System B, BT.470-6 System G Matrix coefficients : BT.470-6 System B, BT.470-6 System G, BT.601-6 625, BT.1358 625, BT.1700 625 PAL, BT.1700 625 SECAM, IEC 61966-2-4 601 Audio #2072 ID : 2072 (0x818) Menu ID : 1 (0x1) Format : MPEG Audio Format version : Version 1 Format profile : Layer 2 Codec ID : 3 Duration : 40mn 56s Bit rate mode : Constant Bit rate : 192 Kbps Channel(s) : 2 channels Sampling rate : 48.0 KHz Compression mode : Lossy Stream size : 56.2 MiB (6%) Language : English

Скриншоты


_________________
Показать сообщения:    

Текущее время: Сегодня 09:38

Часовой пояс: GMT



Вы не можете начинать темы
Вы не можете отвечать на сообщения
Вы не можете редактировать свои сообщения
Вы не можете удалять свои сообщения
Вы не можете голосовать в опросах
Вы не можете прикреплять файлы к сообщениям
Вы не можете скачивать файлы