Важное объявление!
У Нас Все раздачи мультитрекерные, при нуле пиров в релизах, можете смело вставать на закачку!
 
Автор Сообщение

HUNTER

Стаж:
4 года 4 месяца
Сообщений:
56734

Репутация: 101

[+] [-]
Вне форума [Профиль] [ЛС]

Геркулес в Нью-Йорке / Hercules in New York
Страна: США
Жанр: фэнтези, приключения
Год выпуска: 1969
Продолжительность: 01:32:01
Перевод 1: Профессиональный (многоголосый закадровый)
Перевод 2: Авторский (одноголосый закадровый) Юрий сербин
Cубтитры: русские
Оригинальная аудиодорожка: английский
Режиссер: Артур Аллан Сейдельман / Arthur Allan Seidelman
В ролях: Арнольд Стэнг, Арнольд Шварценеггер, Дебора Лумис, Джеймс Карен, Эрнест Грейвз, Танни МакДональд, Харольд Бурстейн, Мервин Голдсмит, Джордж Бартеньефф, Тайна Элг...
Описание: После долгой жизни на Олимпе Геркулеc, незаконнорожденный сын Зевса, вопреки желанию отца, отправляется на Землю и оказывается в Нью-Йорке. Но для человека, который жил в Греции нелегко привыкнуть к современной жизни…
Доп. информация: За оцифровку VHS с переводом Сербина спасибо Kino-profan. Оригинальная дорожка и MVO с DVD9. Синронизация звука - Dreven.
Сэмпл: http://multi-up.com/1041247
Тип релиза: BDRip 720p Исходник Blu-Ray Remux (hdreactor)
Контейнер: MKV
Видео: 1280x720 (16:9), 23.976 fps, AVC, ~10000 Kbps, 0.453 bits/pixel
Аудио 1: Russian, 48.0 KHz, AC3, 2 ch, 192 Kbps
Аудио 2: Russian, 48.0 KHz, AC3, 2 ch, 192 Kbps - Юрий Сербин
Аудио 3: English, 48.0 KHz, AC3, 2 ch, 192 Kbps - Original
Аудио 4: English, 48.0 KHz, DTS, 2 ch, 755 Kbps прокатная версия с переозвученным Шварценеггером

Log

avs4x264.exe: -L x264_64.exe --pass 2 --bitrate 10000 --preset medium --ref 9 --deblock -1:-1 --merange 32 --bframes 10 --direct auto --b-adapt 2 --trellis 2 --no-fast-pskip --psy-rd 1.00:0.10 --partitions all --subme 10 --me umh --rc-lookahead 50 --sar 1:1 --stats "D:\Hercules in New York.log" --output "D:\Hercules in New York.mp4" "C:\Temp\0165.avs"
raw [info]: 1280x720p 1:1 @ 24000/1001 fps (cfr)
x264 [info]: using SAR=1/1
x264 [info]: using cpu capabilities: MMX2 SSE2Fast LZCNT
x264 [info]: profile High, level 4.0
x264 [info]: frame I:774 Avg QP:16.04 size:169091
x264 [info]: frame P:27691 Avg QP:18.29 size: 79458
x264 [info]: frame B:103900 Avg QP:20.72 size: 43984
x264 [info]: consecutive B-frames: 1.5% 3.3% 4.2% 23.5% 10.2% 40.5% 11.2% 3.9% 1.0% 0.4% 0.3%
x264 [info]: mb I I16..4: 3.8% 81.1% 15.1%
x264 [info]: mb P I16..4: 0.5% 28.4% 1.8% P16..4: 28.6% 25.8% 13.5% 0.8% 0.2% skip: 0.4%
x264 [info]: mb B I16..4: 0.0% 5.2% 0.2% B16..8: 41.5% 18.2% 5.4% direct:18.1% skip:11.4% L0:43.5% L1:40.9% BI:15.6%
x264 [info]: 8x8 transform intra:93.1% inter:64.4%
x264 [info]: direct mvs spatial:98.4% temporal:1.6%
x264 [info]: coded y,uvDC,uvAC intra: 97.6% 84.6% 51.2% inter: 67.1% 39.8% 4.2%
x264 [info]: i16 v,h,dc,p: 17% 10% 13% 60%
x264 [info]: i8 v,h,dc,ddl,ddr,vr,hd,vl,hu: 9% 8% 11% 9% 13% 12% 12% 12% 14%
x264 [info]: i4 v,h,dc,ddl,ddr,vr,hd,vl,hu: 8% 8% 4% 9% 15% 14% 14% 12% 15%
x264 [info]: i8c dc,h,v,p: 42% 24% 19% 14%
x264 [info]: Weighted P-Frames: Y:9.7% UV:2.4%
x264 [info]: ref P L0: 35.5% 10.7% 18.0% 8.8% 7.9% 5.7% 5.7% 3.5% 3.7% 0.5% 0.0%
x264 [info]: ref B L0: 76.6% 9.9% 4.9% 2.9% 2.3% 1.9% 1.1% 0.4%
x264 [info]: ref B L1: 94.3% 5.7%
x264 [info]: kb/s:10000.25
x264 [total]: encoded 132365 frames, 3.46 fps, 10000.25 kb/s

MediaInfo

General
Unique ID : 178330244592668957801188557484078391777 (0x862927E2D7AF28E59EB62909FA3FE1E1)
Complete name : C:\Hercules in New York.mkv
Format : Matroska
Format version : Version 4 / Version 2
File size : 7.29 GiB
Duration : 1h 32mn
Overall bit rate : 11.3 Mbps
Encoded date : UTC 2015-03-29 17:51:01
Writing application : mkvmerge v7.7.0 ('Six Voices') 64bit built on Feb 28 2015 23:39:33
Writing library : libebml v1.3.1 + libmatroska v1.4.2
DURATION : 01:31:27.370000000
NUMBER_OF_FRAMES : 1777
NUMBER_OF_BYTES : 76233
_STATISTICS_WRITING_APP : mkvmerge v7.7.0 ('Six Voices') 64bit built on Feb 28 2015 23:39:33
_STATISTICS_WRITING_DATE_UT : 2015-03-29 17:51:01
_STATISTICS_TAGS : BPS DURATION NUMBER_OF_FRAMES NUMBER_OF_BYTES
Video
ID : 1
Format : AVC
Format/Info : Advanced Video Codec
Format profile : High@L4.0
Format settings, CABAC : Yes
Format settings, ReFrames : 9 frames
Codec ID : V_MPEG4/ISO/AVC
Duration : 1h 32mn
Bit rate : 10 000 Kbps
Width : 1 280 pixels
Height : 720 pixels
Display aspect ratio : 16:9
Frame rate mode : Constant
Frame rate : 23.976 fps
Color space : YUV
Chroma subsampling : 4:2:0
Bit depth : 8 bits
Scan type : Progressive
Bits/(Pixel*Frame) : 0.453
Stream size : 6.28 GiB (86%)
Writing library : x264 core 146 r2538 121396c
Encoding settings : cabac=1 / ref=9 / deblock=1:-1:-1 / analyse=0x3:0x133 / me=umh / subme=10 / psy=1 / psy_rd=1.00:0.10 / mixed_ref=1 / me_range=32 / chroma_me=1 / trellis=2 / 8x8dct=1 / cqm=0 / deadzone=21,11 / fast_pskip=0 / chroma_qp_offset=-3 / threads=6 / lookahead_threads=1 / sliced_threads=0 / nr=0 / decimate=1 / interlaced=0 / bluray_compat=0 / constrained_intra=0 / bframes=10 / b_pyramid=2 / b_adapt=2 / b_bias=0 / direct=3 / weightb=1 / open_gop=0 / weightp=2 / keyint=250 / keyint_min=23 / scenecut=40 / intra_refresh=0 / rc_lookahead=50 / rc=2pass / mbtree=1 / bitrate=10000 / ratetol=1.0 / qcomp=0.60 / qpmin=0 / qpmax=69 / qpstep=4 / cplxblur=20.0 / qblur=0.5 / ip_ratio=1.40 / aq=1:1.00
Language : English
Default : Yes
Forced : No
Audio #1
ID : 2
Format : AC-3
Format/Info : Audio Coding 3
Mode extension : CM (complete main)
Format settings, Endianness : Big
Codec ID : A_AC3
Duration : 1h 32mn
Bit rate mode : Constant
Bit rate : 192 Kbps
Channel(s) : 2 channels
Channel positions : Front: L R
Sampling rate : 48.0 KHz
Bit depth : 16 bits
Compression mode : Lossy
Stream size : 126 MiB (2%)
Language : Russian
Default : Yes
Forced : No
Audio #2
ID : 3
Format : AC-3
Format/Info : Audio Coding 3
Mode extension : CM (complete main)
Format settings, Endianness : Big
Codec ID : A_AC3
Duration : 1h 32mn
Bit rate mode : Constant
Bit rate : 192 Kbps
Channel(s) : 2 channels
Channel positions : Front: L R
Sampling rate : 48.0 KHz
Bit depth : 16 bits
Compression mode : Lossy
Stream size : 126 MiB (2%)
Title : Юрий Сербин
Language : Russian
Default : No
Forced : No
Audio #3
ID : 4
Format : AC-3
Format/Info : Audio Coding 3
Mode extension : CM (complete main)
Format settings, Endianness : Big
Codec ID : A_AC3
Duration : 1h 32mn
Bit rate mode : Constant
Bit rate : 192 Kbps
Channel(s) : 2 channels
Channel positions : Front: L R
Sampling rate : 48.0 KHz
Bit depth : 16 bits
Compression mode : Lossy
Stream size : 126 MiB (2%)
Title : Original
Language : English
Default : No
Forced : No
Audio #4
ID : 5
Format : DTS
Format/Info : Digital Theater Systems
Mode : 16
Format settings, Endianness : Big
Codec ID : A_DTS
Duration : 1h 32mn
Bit rate mode : Constant
Bit rate : 768 Kbps
Channel(s) : 2 channels
Channel positions : Front: L R
Sampling rate : 48.0 KHz
Bit depth : 16 bits
Compression mode : Lossy
Stream size : 505 MiB (7%)
Language : English
Default : No
Forced : No
Text #1
ID : 6
Format : UTF-8
Codec ID : S_TEXT/UTF8
Codec ID/Info : UTF-8 Plain Text
Language : Russian
Default : No
Forced : No
Text #2
ID : 7
Format : UTF-8
Codec ID : S_TEXT/UTF8
Codec ID/Info : UTF-8 Plain Text
Language : English
Default : No
Forced : No

Скриншоты


_________________
Показать сообщения:    

Текущее время: Сегодня 16:24

Часовой пояс: GMT



Вы не можете начинать темы
Вы не можете отвечать на сообщения
Вы не можете редактировать свои сообщения
Вы не можете удалять свои сообщения
Вы не можете голосовать в опросах
Вы не можете прикреплять файлы к сообщениям
Вы не можете скачивать файлы