Важное объявление!
У Нас Все раздачи мультитрекерные, при нуле пиров в релизах, можете смело вставать на закачку!
 
Автор Сообщение

HUNTER

Стаж:
4 года 4 месяца
Сообщений:
56839

Репутация: 101

[+] [-]
Вне форума [Профиль] [ЛС]

Геркулес / Hercules
-Страна: США
Жанр: мультфильм, мюзикл, фэнтези, комедия, приключения,
Продолжительность: 1:33:12
Год выпуска: 1997
Перевод: Профессиональный (дублированный)
Перевод 2: Профессиональный (многоголосый закадровый)
Перевод 3: Профессиональный (многоголосый закадровый) НТВ+
Перевод 4: Одноголосый закадровый, П. Санаев
Перевод 5: Одноголосый закадровый, Н. Антонов
Русские субтитры: есть
Режиссёр: Рон Клементс, Джон Маскер
Роли озвучивали: Тейт Донован, Джошуа Китон, Роджер Барт, Дэнни ДеВито, Джеймс Вудс, Сьюзэн Иган, Боб Голдтуэйт, Мэтт Фрюэр, Рип Торн, Саманта Эггар
Описание: Аид — властитель загробного мира. Много лет назад он был фактически сослан своим старшим братом Зевсом в глубины Ада и теперь намерен наверстать упущенное, собрав армию монстров и захватив Олимп. Единственный, кто может помешать Аиду — сын Зевса, юный Геркулес, поэтому прислужники злодея похищают младенца и превращают его в простого смертного.
Спустя много лет юноша узнает о своем происхождении и ставит целью вернуться домой, но для этого ему придется совершить немало подвигов и стать настоящим героем. Но, как выясняется, даже победы над силами зла недостаточно, чтобы вернуть божественное начало…-
Сэмпл: http://sendfile.su/1028513
Раздача от: Рип от NTb!-Качество: BDRip 1080p (Hercules 1997 Blu-ray NORDiC 1080p AVC DD5.1-HDCLUB)
Формат: MKV
Видео: 1920x1080 at 23.976 fps, x264@L4.1, crf, ~14762 kbps avg
Аудио#1: Russian: 48 kHz/16-bit, AC3, 3/2 (L,C,R,l,r) + LFE ch, ~640.00 kbps avg |Дубляж, Blu-ray NORDiC|
Аудио#2: Russian: 48 kHz/16-bit, AC3, 3/2 (L,C,R,l,r) + LFE ch, ~384.00 kbps avg |Многоголосый закадровый|
Аудио#3: Russian: 48 kHz/16-bit, AC3, 3/2 (L,C,R,l,r) + LFE ch, ~384.00 kbps avg |Многоголосый закадровый, НТВ+|
Аудио#4: Russian: 48 kHz/24-bit, DTS, 3/2 (L,C,R,l,r) + LFE ch, ~755.00 kbps avg |Одноголосый закадровый, П. Санаев|
Аудио#5: Russian: 48 kHz/16-bit, AC3, 2/0 (L,R), ~192.00 kbps avg |Одноголосый закадровый, Н. Антонов|
Аудио#6: English: 48 kHz/24-bit, DTS, 3/2 (L,C,R,l,r) + LFE ch, ~1509.00 kbps avg
Субтитры: Russian, English, English (SDH)-

x264

x264 [info]: frame I:1011 Avg QP:11.25 size:276726
x264 [info]: frame P:36939 Avg QP:12.66 size:136461
x264 [info]: frame B:96128 Avg QP:13.57 size: 51994
x264 [info]: consecutive B-frames: 5.7% 4.3% 13.5% 33.3% 22.4% 13.4% 3.0% 1.5% 1.0% 1.0% 0.9%

MediaInfo

Код:
General
Unique ID                                : 193243578837798010116620312831406287984 (0x91615C087B6D0DC7BF32F2AF3F26AC70)
Complete name                            : E:\Hercules.1997.1080p.BDRip.5xRus.Eng.HDCLUB.mkv
Format                                   : Matroska
Format version                           : Version 2
File size                                : 12.1 GiB
Duration                                 : 1h 33mn
Overall bit rate                         : 18.6 Mbps
Movie name                               : Геркулес / Hercules (1997) 1080p BDRip
Encoded date                             : UTC 2014-09-21 17:18:27
Writing application                      : mkvmerge v5.8.0 ('No Sleep / Pillow') built on Sep  2 2012 15:37:04
Writing library                          : libebml v1.2.3 + libmatroska v1.3.0
Cover                                    : Yes
Video
ID                                       : 1
Format                                   : AVC
Format/Info                              : Advanced Video Codec
Format profile                           : High@L4.1
Format settings, CABAC                   : Yes
Format settings, ReFrames                : 4 frames
Codec ID                                 : V_MPEG4/ISO/AVC
Duration                                 : 1h 33mn
Bit rate                                 : 14.4 Mbps
Width                                    : 1 920 pixels
Height                                   : 1 080 pixels
Display aspect ratio                     : 16:9
Frame rate mode                          : Constant
Frame rate                               : 23.976 fps
Color space                              : YUV
Chroma subsampling                       : 4:2:0
Bit depth                                : 8 bits
Scan type                                : Progressive
Bits/(Pixel*Frame)                       : 0.290
Stream size                              : 9.37 GiB (77%)
Title                                    : Release for HDCLUB [by NTb]
Writing library                          : x264 core 138 r2358 9e941d1
Encoding settings                        : cabac=1 / ref=4 / deblock=1:-3:-3 / analyse=0x3:0x133 / me=umh / subme=10 / psy=1 / psy_rd=1.10:0.00 / mixed_ref=1 / me_range=32 / chroma_me=1 / trellis=2 / 8x8dct=1 / cqm=0 / deadzone=21,11 / fast_pskip=0 / chroma_qp_offset=-2 / threads=4 / lookahead_threads=1 / sliced_threads=0 / nr=0 / decimate=0 / interlaced=0 / bluray_compat=0 / constrained_intra=0 / bframes=10 / b_pyramid=2 / b_adapt=2 / b_bias=0 / direct=3 / weightb=1 / open_gop=0 / weightp=2 / keyint=250 / keyint_min=23 / scenecut=40 / intra_refresh=0 / rc_lookahead=60 / rc=crf / mbtree=0 / crf=17.0 / qcomp=0.80 / qpmin=0 / qpmax=69 / qpstep=4 / vbv_maxrate=50000 / vbv_bufsize=62500 / crf_max=0.0 / nal_hrd=none / ip_ratio=1.30 / pb_ratio=1.20 / aq=1:1.10
Language                                 : English
Default                                  : Yes
Forced                                   : No
Audio #1
ID                                       : 2
Format                                   : AC-3
Format/Info                              : Audio Coding 3
Mode extension                           : CM (complete main)
Format settings, Endianness              : Big
Codec ID                                 : A_AC3
Duration                                 : 1h 33mn
Bit rate mode                            : Constant
Bit rate                                 : 640 Kbps
Channel(s)                               : 6 channels
Channel positions                        : Front: L C R, Side: L R, LFE
Sampling rate                            : 48.0 KHz
Bit depth                                : 16 bits
Compression mode                         : Lossy
Stream size                              : 427 MiB (3%)
Title                                    : Дубляж, Blu-ray NORDiC
Language                                 : Russian
Default                                  : Yes
Forced                                   : No
Audio #2
ID                                       : 3
Format                                   : AC-3
Format/Info                              : Audio Coding 3
Mode extension                           : CM (complete main)
Format settings, Endianness              : Big
Codec ID                                 : A_AC3
Duration                                 : 1h 33mn
Bit rate mode                            : Constant
Bit rate                                 : 384 Kbps
Channel(s)                               : 6 channels
Channel positions                        : Front: L C R, Side: L R, LFE
Sampling rate                            : 48.0 KHz
Bit depth                                : 16 bits
Compression mode                         : Lossy
Stream size                              : 256 MiB (2%)
Title                                    : Многоголосый закадровый
Language                                 : Russian
Default                                  : No
Forced                                   : No
Audio #3
ID                                       : 4
Format                                   : AC-3
Format/Info                              : Audio Coding 3
Mode extension                           : CM (complete main)
Format settings, Endianness              : Big
Codec ID                                 : A_AC3
Duration                                 : 1h 33mn
Bit rate mode                            : Constant
Bit rate                                 : 384 Kbps
Channel(s)                               : 6 channels
Channel positions                        : Front: L C R, Side: L R, LFE
Sampling rate                            : 48.0 KHz
Bit depth                                : 16 bits
Compression mode                         : Lossy
Stream size                              : 256 MiB (2%)
Title                                    : Многоголосый закадровый, НТВ
Language                                 : Russian
Default                                  : No
Forced                                   : No
Audio #4
ID                                       : 5
Format                                   : DTS
Format/Info                              : Digital Theater Systems
Mode                                     : 16
Format settings, Endianness              : Big
Codec ID                                 : A_DTS
Duration                                 : 1h 33mn
Bit rate mode                            : Constant
Bit rate                                 : 755 Kbps
Channel(s)                               : 6 channels
Channel positions                        : Front: L C R, Side: L R, LFE
Sampling rate                            : 48.0 KHz
Bit depth                                : 24 bits
Compression mode                         : Lossy
Stream size                              : 503 MiB (4%)
Title                                    : Одноголосый закадровый, П. Санаев
Language                                 : Russian
Default                                  : No
Forced                                   : No
Audio #5
ID                                       : 6
Format                                   : AC-3
Format/Info                              : Audio Coding 3
Mode extension                           : CM (complete main)
Format settings, Endianness              : Big
Codec ID                                 : A_AC3
Duration                                 : 1h 33mn
Bit rate mode                            : Constant
Bit rate                                 : 192 Kbps
Channel(s)                               : 2 channels
Channel positions                        : Front: L R
Sampling rate                            : 48.0 KHz
Bit depth                                : 16 bits
Compression mode                         : Lossy
Stream size                              : 128 MiB (1%)
Title                                    : Одноголосый закадровый, Н. Антонов
Language                                 : Russian
Default                                  : No
Forced                                   : No
Audio #6
ID                                       : 7
Format                                   : DTS
Format/Info                              : Digital Theater Systems
Mode                                     : 16
Format settings, Endianness              : Big
Codec ID                                 : A_DTS
Duration                                 : 1h 33mn
Bit rate mode                            : Constant
Bit rate                                 : 1 509 Kbps
Channel(s)                               : 6 channels
Channel positions                        : Front: L C R, Side: L R, LFE
Sampling rate                            : 48.0 KHz
Bit depth                                : 24 bits
Compression mode                         : Lossy
Stream size                              : 1 006 MiB (8%)
Title                                    : English
Language                                 : English
Default                                  : No
Forced                                   : No
Text #1
ID                                       : 8
Format                                   : UTF-8
Codec ID                                 : S_TEXT/UTF8
Codec ID/Info                            : UTF-8 Plain Text
Title                                    : Russian
Language                                 : Russian
Default                                  : No
Forced                                   : No
Text #2
ID                                       : 9
Format                                   : UTF-8
Codec ID                                 : S_TEXT/UTF8
Codec ID/Info                            : UTF-8 Plain Text
Title                                    : English
Language                                 : English
Default                                  : No
Forced                                   : No
Text #3
ID                                       : 10
Format                                   : UTF-8
Codec ID                                 : S_TEXT/UTF8
Codec ID/Info                            : UTF-8 Plain Text
Title                                    : English (SDH)
Language                                 : English
Default                                  : No
Forced                                   : No
Menu
00:00:00.000                             : en:Program Start
00:00:32.824                             : en:'The Gospel Truth'
00:02:28.690                             : en:Festivities on Mt. Olympus
00:05:16.566                             : en:Hades
00:07:55.391                             : en:The Fates Reveal the Future to Hades
00:10:59.617                             : en:Hercules Is Kidnapped
00:14:23.195                             : en:Jerk-Ules
00:18:28.649                             : en:'Go the Distance'
00:20:12.628                             : en:Hercules Sets Out for the Temple of Zeus
00:21:01.468                             : en:The Search for Philoctetes
00:25:29.986                             : en:'Call Me Phil'
00:28:21.324                             : en:'One Last Hope'
00:32:08.927                             : en:A Damsel in Distress
00:35:20.743                             : en:Megara
00:39:12.308                             : en:The Big Olive - Thebes
00:44:26.246                             : en:The Battle with the Hydra
00:48:29.156                             : en:'Zero to Hero'
00:51:32.547                             : en:Hades' Plan on the Verge of Disaster
00:53:47.390                             : en:Progress Report to Zeus
00:55:20.650                             : en:At the Villa
00:57:49.632                             : en:The End of a Great Day
01:01:18.341                             : en:'I Won't Say (I'm in Love)'
01:03:47.615                             : en:Herc's Weakness
01:07:44.977                             : en:Hades' Dirty Deal
01:10:27.890                             : en:Hades Releases the Titans
01:15:17.513                             : en:Inspiration From Phil
01:17:08.457                             : en:Hercules Heads for Mt. Olympus
01:19:13.331                             : en:The Fates Cut the Thread
01:20:55.100                             : en:Hercules Makes a Deal with Hades
01:23:44.477                             : en:Reunion on Mt. Olympus
01:26:01.239                             : en:'A Star Is Born'
01:27:03.176                             : en:End Credits

Скриншоты


_________________
Показать сообщения:    

Текущее время: Сегодня 01:52

Часовой пояс: GMT



Вы не можете начинать темы
Вы не можете отвечать на сообщения
Вы не можете редактировать свои сообщения
Вы не можете удалять свои сообщения
Вы не можете голосовать в опросах
Вы не можете прикреплять файлы к сообщениям
Вы не можете скачивать файлы