Важное объявление!
У Нас Все раздачи мультитрекерные, при нуле пиров в релизах, можете смело вставать на закачку!
 
Автор Сообщение

HUNTER

Стаж:
4 года 4 месяца
Сообщений:
56790

Репутация: 101

[+] [-]
Вне форума [Профиль] [ЛС]

Геракл: Начало легенды / The Legend of Hercules
Страна: США, Болгария
Студия: Millennium Films
Жанр: боевик, фэнтези
Год выпуска: 2014
Продолжительность: 01:38:38
Перевод: Профессиональный (дублированный)Blu-ray RUS
Cубтитры: английские
Оригинальная аудиодорожка: английский
Режиссер: Ренни Харлин / Renny Harlin
В ролях: Келлан Латс, Джая Уайсс, Скотт Эдкинс, Роксанна МакКи, Лайам Гэрриган, Лиам МакИнтайр, Раде Шербеджия, Джонатон Шек, Люк Ньюберри, Кеннет Крэнэм
Описание: 1200 г. до н. э. Древняя Греция. Прекрасная царица Алкмена попала под чары грозного бога Олимпа — Зевса и родила ему сына Геракла. При рождении ему было предсказано стать величайшим воином, который будет властвовать над народами и принесет мир и процветание своей стране. Но пока Геракл ничего не знает о своем предназначении. Он вырос прекрасным и сильным юношей. Он мечтает о любви принцессы Крита, Гебы, которая
обещана в жены его брату. Когда Геракл узнает о своей великой миссии, он должен выбрать: сбежать со своей любовью или исполнить свое предназначение. Ему предстоит сразиться с кентавром, победить гигантов, выросших из зубов дракона, перехитрить богинь Судьбы, спасти свою возлюбленную Гебу и выйти на бой со своим злейшим врагом — сыном бога войны Ареса.


Тип релиза: BDRip 720p[CtrlHD]
Контейнер: MKV
Видео: AVC, 1280x536, 6000kbps, 23.976 fps
Аудио 1: Russian: 48 kHz, AC3, 3/2 (L,C,R,l,r) + LFE ch, ~640.00 kbps avg |Blu-ray RUS|
Аудио 2: English: 48 kHz, AC3, 3/2 (L,C,R,l,r) + LFE ch, ~640.00 kbps |Original|
Чаптеры:есть

MediaInfo

General
Unique ID : 219036146397299992025523007319555005849 (0xA4C8D3CB91CD40D8AC27165C30C55D99)
Complete name : D:\The.Legend.of.Hercules.2014.720p.BluRay.DTS.x264-Talian-.mkv
Format : Matroska
Format version : Version 2
File size : 5.02 GiB
Duration : 1h 38mn
Overall bit rate : 7 280 Kbps
Movie name : -Talian-
Encoded date : UTC 2014-09-11 06:06:14
Writing application : mkvmerge v5.7.0 ('The Whirlwind') built on Jul 8 2012 20:08:51
Writing library : libebml v1.2.3 + libmatroska v1.3.0
Video
ID : 1
Format : AVC
Format/Info : Advanced Video Codec
Format profile : High@L4.1
Format settings, CABAC : Yes
Format settings, ReFrames : 12 frames
Codec ID : V_MPEG4/ISO/AVC
Duration : 1h 38mn
Bit rate : 6 000 Kbps
Width : 1 280 pixels
Height : 536 pixels
Display aspect ratio : 2.40:1
Frame rate : 23.976 fps
Color space : YUV
Chroma subsampling : 4:2:0
Bit depth : 8 bits
Scan type : Progressive
Bits/(Pixel*Frame) : 0.365
Stream size : 4.03 GiB (80%)
Title : CtrlHD
Writing library : x264 core 133 r2334 a3ac64b
Encoding settings : cabac=1 / ref=12 / deblock=1:-3:-3 / analyse=0x3:0x113 / me=tesa / subme=11 / psy=1 / psy_rd=1.10:0.00 / mixed_ref=1 / me_range=32 / chroma_me=1 / trellis=2 / 8x8dct=1 / cqm=0 / deadzone=21,11 / fast_pskip=0 / chroma_qp_offset=-4 / threads=12 / lookahead_threads=2 / sliced_threads=0 / nr=0 / decimate=0 / interlaced=0 / bluray_compat=0 / constrained_intra=0 / bframes=8 / b_pyramid=2 / b_adapt=2 / b_bias=0 / direct=3 / weightb=1 / open_gop=0 / weightp=2 / keyint=250 / keyint_min=23 / scenecut=40 / intra_refresh=0 / rc=2pass / mbtree=0 / bitrate=6000 / ratetol=1.0 / qcomp=0.65 / qpmin=0 / qpmax=69 / qpstep=4 / cplxblur=20.0 / qblur=0.5 / ip_ratio=1.20 / pb_ratio=1.30 / aq=1:0.85
Language : English
Default : Yes
Forced : No
Audio #1
ID : 2
Format : AC-3
Format/Info : Audio Coding 3
Mode extension : CM (complete main)
Format settings, Endianness : Big
Codec ID : A_AC3
Duration : 1h 38mn
Bit rate mode : Constant
Bit rate : 640 Kbps
Channel(s) : 6 channels
Channel positions : Front: L C R, Side: L R, LFE
Sampling rate : 48.0 KHz
Bit depth : 16 bits
Compression mode : Lossy
Stream size : 452 MiB (9%)
Title : DUB-Blu-ray RUS
Language : Russian
Default : Yes
Forced : No
Audio #2
ID : 3
Format : AC-3
Format/Info : Audio Coding 3
Mode extension : CM (complete main)
Format settings, Endianness : Big
Codec ID : A_AC3
Duration : 1h 38mn
Bit rate mode : Constant
Bit rate : 640 Kbps
Channel(s) : 6 channels
Channel positions : Front: L C R, Side: L R, LFE
Sampling rate : 48.0 KHz
Bit depth : 16 bits
Compression mode : Lossy
Stream size : 452 MiB (9%)
Title : Original
Language : English
Default : No
Forced : No
Text
ID : 4
Format : UTF-8
Codec ID : S_TEXT/UTF8
Codec ID/Info : UTF-8 Plain Text
Title : Sub
Language : English
Default : No
Forced : No
Menu
00:00:00.000 : en:00:00:00.000
00:14:07.221 : en:00:14:07.221
00:36:13.546 : en:00:36:13.546
00:58:32.675 : en:00:58:32.675
01:18:37.629 : en:01:18:37.629
01:29:12.805 : en:01:29:12.805

x264 log

x264 [info]: profile High, level 4.1
x264 [info]: frame I:1666 Avg QP:14.71 size:120649
x264 [info]: frame P:38036 Avg QP:15.98 size: 54198
x264 [info]: frame B:102209 Avg QP:17.97 size: 21277
x264 [info]: consecutive B-frames: 4.7% 9.1% 12.2% 23.6% 14.0% 32.1% 2.5% 0.
9% 0.9%
x264 [info]: mb I I16..4: 5.8% 68.7% 25.5%
x264 [info]: mb P I16..4: 1.3% 15.0% 2.7% P16..4: 25.3% 30.6% 15.8% 0.0% 0
.0% skip: 9.3%
x264 [info]: mb B I16..4: 0.4% 2.5% 0.5% B16..8: 29.9% 26.6% 7.7% direct:
10.2% skip:22.3% L0:41.0% L1:40.3% BI:18.6%
x264 [info]: 8x8 transform intra:76.2% inter:50.6%
x264 [info]: direct mvs spatial:97.8% temporal:2.2%
x264 [info]: coded y,uvDC,uvAC intra: 83.6% 91.9% 86.3% inter: 39.0% 43.4% 25.8%
x264 [info]: i16 v,h,dc,p: 59% 14% 7% 21%
x264 [info]: i8 v,h,dc,ddl,ddr,vr,hd,vl,hu: 12% 8% 11% 9% 12% 12% 11% 12% 13%
x264 [info]: i4 v,h,dc,ddl,ddr,vr,hd,vl,hu: 15% 9% 13% 8% 12% 11% 11% 10% 13%
x264 [info]: i8c dc,h,v,p: 52% 19% 16% 12%
x264 [info]: Weighted P-Frames: Y:10.4% UV:6.4%
x264 [info]: ref P L0: 47.9% 13.5% 16.0% 5.8% 4.7% 3.2% 2.8% 1.5% 1.3% 1.
1% 1.0% 0.9% 0.3% 0.0%
x264 [info]: ref B L0: 79.1% 9.4% 4.0% 2.6% 1.4% 1.2% 0.8% 0.5% 0.5% 0.
3% 0.1%
x264 [info]: ref B L1: 94.5% 5.5%
x264 [info]: kb/s:5997.37

Скриншоты

Source vs Encode




_________________
Показать сообщения:    

Текущее время: Сегодня 11:52

Часовой пояс: GMT



Вы не можете начинать темы
Вы не можете отвечать на сообщения
Вы не можете редактировать свои сообщения
Вы не можете удалять свои сообщения
Вы не можете голосовать в опросах
Вы не можете прикреплять файлы к сообщениям
Вы не можете скачивать файлы