Важное объявление!
У Нас Все раздачи мультитрекерные, при нуле пиров в релизах, можете смело вставать на закачку!
 
Автор Сообщение

HUNTER

Стаж:
4 года 4 месяца
Сообщений:
56755

Репутация: 101

[+] [-]
Вне форума [Профиль] [ЛС]

Геракл / Hercules
Год выпуска: 2014
Страна: США (Paramount Pictures, Metro-Goldwyn-Mayer)
Жанр: Боевик, Приключения
Продолжительность: 1:38:05
Перевод: Профессиональный дублированный (лицензия)
Русские субтитры: нет
Режиссер : Бретт Рэтнер / Brett Ratner
В ролях: Дуэйн Джонсон, Иэн МакШейн, Джон Хёрт, Руфус Сьюэлл, Аксель Хенни, Ингрид Больсё Бердаль, Рис Ричи, Джозеф Файнс, Тобиас Зантельман, Питер Муллан
Роли озвучивали: Александр Головчанский, Александр Новиков, Владимир Еремин, Денис Некрасов, Наталья Грачева
Описание: Более тысячи лет назад измученная душа скиталась по Земле, полубог, получеловек — Геракл — могучий сын царя богов Зевса, совершив все 12 подвигов, потерял семью и теперь находит утешение только в кровавых битвах.
За эти годы он собирает вокруг себя шестерых таких же потерянных воинов, единственным смыслом жизни для которых стали сражения и присутствие смертельной опасности. Эти мужчины и женщина никогда не задают вопрос, где, почему или с кем они идут сражаться; только, сколько им заплатят. Зная это, фракийский царь Котис нанимает этих воинов, чтобы они обучили его солдат и сделали из них самую сильную и великую армию всех времен.
Сэмпл: http://sendfile.su/1041994
Качество: BDrip
Контейнер: MKV
Формат 3D: OverUnder / Вертикальная стереопара
Порядок ракурсов: левый ракурс первый
Видео кодек: x264
Аудио кодек: AC3
Видео: AVC / High@L5.0 / 23,976 fps / 1920х1600 / 17,7 Мбит/сек
Аудио: Русский / AC3 / 48 KHz / 5.1 ch / 640 Кбит/сек (лицензия)
Аудио 2: Английский / AC3 / 48 KHz / 5.1 ch / 640 Кбит/сек
Релиз группы: ВНИМАНИЕ ! На встроенных ТВ-плеерах работать не будет!!!
ТВ Samsung в названии которого есть надпись Ultra HD воспроизводят полные стереопары встроенными плеерами
Железные плееры на которых воспроизводятся полные стереопары:Popcorn C-200 , Dune HD Smart D1 , Dune HD DUO , Dune HD Smart H1 , Dune HD Smart B1 , Dune HD Max , Dune HD TV-303D , Dune HD Base 3D
6.12.2014. Релиз обновлён - русская звуковая дорога(Line) заменена на лицензию.
Желающие, скачайте заново торрент-файл.

MediaInfo

Общее
Уникальный идентификатор : 226495752294562555728451706567436777176 (0xAA657EC2F0DB1410AD158FC86207B6D8)
Полное имя : F:\видео\Hercules.Rip by SeRoGa00.mkv
Формат : Matroska
Версия формата : Version 2
Размер файла : 13,2 Гбайт
Продолжительность : 1 ч. 38 м.
Общий поток : 19,3 Мбит/сек
Дата кодирования : UTC 2014-12-06 14:22:28
Программа кодирования : mkvmerge v3.4.0 ('Rapunzel') сборка от May 15 2010 09:38:20
Библиотека кодирования : libebml v0.8.0 + libmatroska v0.9.0
Видео
Идентификатор : 1
Формат : AVC
Формат/Информация : Advanced Video Codec
Профиль формата : High@L5.0
Параметр CABAC формата : Да
Параметр ReFrames формата : 4 кадра
Идентификатор кодека : V_MPEG4/ISO/AVC
Продолжительность : 1 ч. 38 м.
Битрейт : 17,7 Мбит/сек
Ширина : 1920 пикселей
Высота : 1600 пикселей
Соотношение сторон : 1,200
Частота кадров : 23,976 кадра/сек
Цветовое пространство : YUV
Субдискретизация насыщенности : 4:2:0
Битовая глубина : 8 бит
Тип развёртки : Прогрессивная
Бит/(Пиксели*Кадры) : 0.240
Размер потока : 12,1 Гбайт (91%)
Заголовок : Rip by SeRoGa00
Библиотека кодирования : x264 core 142 r2479 dd79a61
Настройки программы : cabac=1 / ref=4 / deblock=1:-3:-3 / analyse=0x3:0x113 / me=umh / subme=9 / psy=1 / psy_rd=1.00:0.15 / mixed_ref=1 / me_range=24 / chroma_me=1 / trellis=2 / 8x8dct=1 / cqm=0 / deadzone=21,11 / fast_pskip=1 / chroma_qp_offset=-3 / threads=9 / lookahead_threads=1 / sliced_threads=0 / nr=0 / decimate=1 / interlaced=0 / bluray_compat=0 / constrained_intra=0 / bframes=8 / b_pyramid=2 / b_adapt=2 / b_bias=0 / direct=3 / weightb=1 / open_gop=0 / weightp=2 / keyint=250 / keyint_min=23 / scenecut=40 / intra_refresh=0 / rc_lookahead=60 / rc=crf / mbtree=1 / crf=18.0 / qcomp=0.60 / qpmin=10 / qpmax=69 / qpstep=4 / vbv_maxrate=30000 / vbv_bufsize=30000 / crf_max=0.0 / nal_hrd=none / filler=0 / ip_ratio=1.40 / aq=1:1.00
Язык : English
Аудио #1
Идентификатор : 2
Формат : AC-3
Формат/Информация : Audio Coding 3
Расширение режима : CM (complete main)
Идентификатор кодека : A_AC3
Продолжительность : 1 ч. 38 м.
Вид битрейта : Постоянный
Битрейт : 640 Кбит/сек
Каналы : 6 каналов
Расположение каналов : Front: L C R, Side: L R, LFE
Частота : 48,0 КГц
Битовая глубина : 16 бит
Метод сжатия : С потерями
Размер потока : 449 Мбайт (3%)
Язык : Russian
Аудио #2
Идентификатор : 3
Формат : AC-3
Формат/Информация : Audio Coding 3
Расширение режима : CM (complete main)
Идентификатор кодека : A_AC3
Продолжительность : 1 ч. 38 м.
Вид битрейта : Постоянный
Битрейт : 640 Кбит/сек
Каналы : 6 каналов
Расположение каналов : Front: L C R, Side: L R, LFE
Частота : 48,0 КГц
Битовая глубина : 16 бит
Метод сжатия : С потерями
Размер потока : 449 Мбайт (3%)
Язык : English

Скриншоты



_________________
Показать сообщения:    

Текущее время: Сегодня 13:42

Часовой пояс: GMT



Вы не можете начинать темы
Вы не можете отвечать на сообщения
Вы не можете редактировать свои сообщения
Вы не можете удалять свои сообщения
Вы не можете голосовать в опросах
Вы не можете прикреплять файлы к сообщениям
Вы не можете скачивать файлы