Важное объявление!
У Нас Все раздачи мультитрекерные, при нуле пиров в релизах, можете смело вставать на закачку!
 
Автор Сообщение

HUNTER

Стаж:
4 года 4 месяца
Сообщений:
56755

Репутация: 101

[+] [-]
Вне форума [Профиль] [ЛС]

Геракл / Hercules«Множество врагов. Двенадцать подвигов. Один герой»
Страна: США
Жанр: Боевик, приключения, фэнтези
Год выпуска: 2014
релиз на DVD: 1 декабря 2014, «Новый Диск»
релиз на Blu-Ray: 1 декабря 2014, «Новый Диск»
Продолжительность: 01:34:54
Перевод: Профессиональный (дублированный)
Cубтитры: Arabic, Greek, Estonian, English, Hindi, Islenska, Latvian, Lithuanian, Russian, Ukrainian
Режиссер: Бретт Рэтнер / Brett Ratner
В ролях: Дуэйн Джонсон, Аксель Хенни, Джозеф Файнс, Джон Хёрт, Иэн МакШейн, Роберт Мэйллет, Руфус Сьюэлл, Ирина Шейк, Ингрид Болсай Бердал, Джо Андерсон...
Описание: Более тысячи лет назад измученная душа скиталась по Земле, полубог, получеловек — Геракл — могучий сын царя богов Зевса, совершив все 12 подвигов, потерял семью и теперь находит утешение только в кровавых битвах.
За эти годы он собирает вокруг себя шестерых таких же потерянных воинов, единственным смыслом жизни для которых стали сражения и присутствие смертельной опасности. Эти мужчины и женщина никогда не задают вопрос, где, почему или с кем они идут сражаться; только, сколько им заплатят. Зная это, фракийский царь Котис нанимает этих воинов, чтобы они обучили его солдат и сделали из них самую сильную и великую армию всех времен.
Геракл начинает сомневаться в намерениях Котиса, когда тот выводит свою армию и жертвами ее нападения становятся невинные люди соседних поселений. И тогда он принимает решение остановить обезумевшего от власти царя и его армию от похода на Грецию, а, быть может, и на сам Олимп…

Дополнительные материалы: перевод - субтитры
- Комментарии
- Вступление
- Геракл и его наёмники
- Эффекты "Геракла"
Меню: есть, на русском
Тип релиза: DVD9 R5
Контейнер: DVD-Video
Видео кодек: MPEG2
Аудио кодек: AC3
Видео: PAL 16:9 (720x576) VBR Auto Letterboxed ~ 6492 kbps avg
Аудио: English (Dolby AC3, 6 ch, 448 kbps)
Аудио: Hindi (Dolby AC3, 6 ch, 448 kbps)
Аудио: Russian (Dolby AC3, 6 ch, 448 kbps)
Аудио: Ukrainian (Dolby AC3, 6 ch, 448 kbps)
Аудио: English (Dolby AC3, 2 ch, 192 kbps)

DVDInfo

Title: Gerakl.2014.DVD.R5.NiP
Size: 7.15 Gb ( 7 494 918,00 KBytes ) - DVD-9
Enabled regions: 1, 2, 3, 4, 5, 6, 7, 8
VTS_01 :
Play Length: 00:00:00
Video: PAL 16:9 (720x576) VBR, Auto Pan&Scan
Audio:
Not specified (Dolby AC3, 2 ch)
Not specified (Dolby AC3, 2 ch)
Not specified (Dolby AC3, 2 ch)
Not specified (Dolby AC3, 2 ch)
Not specified (Dolby AC3, 2 ch)
Not specified (Dolby AC3, 2 ch)
Not specified (Dolby AC3, 2 ch)
Not specified (Dolby AC3, 2 ch)
Subtitles:
Not specified
Not specified
Not specified
Not specified
Not specified
Not specified
Not specified
Not specified
Not specified
Not specified
Not specified
Not specified
VTS_02 :
Play Length: 00:00:00+00:00:00
Video: PAL 16:9 (720x576) VBR, Auto Letterboxed
VTS_03 :
Play Length: 00:12:01
Video: PAL 16:9 (720x576) VBR, Auto Letterboxed
Audio:
English (Dolby AC3, 2 ch)
Subtitles:
Arabic
Greek
Estonian
English
Hindi
Islenska
Latvian
Lithuanian
Russian
Ukrainian
VTS_04 :
Play Length: 01:34:04+00:00:15+00:00:20+00:00:15
Video: PAL 16:9 (720x576) VBR, Auto Letterboxed
Audio:
English (Dolby AC3, 6 ch)
Hindi (Dolby AC3, 6 ch)
Russian (Dolby AC3, 6 ch)
Ukrainian (Dolby AC3, 6 ch)
English (Dolby AC3, 2 ch)
Subtitles:
Arabic
Greek
Estonian
English
Hindi
Islenska
Latvian
Lithuanian
Russian
Ukrainian
English
Russian
VTS_05 :
Play Length: 00:05:22+00:10:44+00:00:00
Video: PAL 16:9 (720x576) VBR, Auto Letterboxed
Audio:
English (Dolby AC3, 2 ch)
Subtitles:
Arabic
Greek
Estonian
English
Hindi
Islenska
Latvian
Lithuanian
Russian
Ukrainian

MediaInfo

Общее
Полное имя : I:\DVD\Gerakl.2014.DVD.R5.NiP\VIDEO_TS\VTS_04_3.VOB
Формат : MPEG-PS
Размер файла : 1024 Мбайт
Продолжительность : 16 м.
Режим общего битрейта : Переменный
Общий поток : 8648 Кбит/сек
Видео
Идентификатор : 224 (0xE0)
Формат : MPEG Video
Версия формата : Version 2
Профиль формата : Main@Main
Параметр BVOP формата : Да
Параметр матрицы формата : Выборочная
Параметр GOP формата : Variable
Продолжительность : 16 м.
Вид битрейта : Переменный
Битрейт : 6492 Кбит/сек
Максимальный битрейт : 9800 Кбит/сек
Ширина : 720 пикселей
Высота : 576 пикселей
Соотношение сторон : 16:9
Частота кадров : 25,000 кадров/сек
Стандарт вещания : Component
Цветовое пространство : YUV
Субдискретизация насыщенности : 4:2:0
Битовая глубина : 8 бит
Тип развёртки : Прогрессивная
Порядок развёртки : Верхнее поле первое
Метод сжатия : С потерями
Бит/(Пиксели*Кадры) : 0.626
Временной код первого кадра : 01:33:10:00
Оригинал временного кода : Group of pictures header
Размер потока : 769 Мбайт (75%)
Основные цвета : BT.601 PAL
Характеристики трансфера : BT.470 System B, BT.470 System G
Коэффициенты матрицы : BT.601
Аудио #1
Идентификатор : 189 (0xBD)-128 (0x80)
Формат : AC-3
Формат/Информация : Audio Coding 3
Расширение режима : CM (complete main)
Параметр Endianness формата : Big
Режим смешивания : DVD-Video
Продолжительность : 16 м.
Вид битрейта : Постоянный
Битрейт : 448 Кбит/сек
Каналы : 6 каналов
Расположение каналов : Front: L C R, Side: L R, LFE
Частота : 48,0 КГц
Битовая глубина : 16 бит
Метод сжатия : С потерями
Задержка видео : -408 мс.
Размер потока : 53,0 Мбайт (5%)
Аудио #2
Идентификатор : 189 (0xBD)-129 (0x81)
Формат : AC-3
Формат/Информация : Audio Coding 3
Расширение режима : CM (complete main)
Параметр Endianness формата : Big
Режим смешивания : DVD-Video
Продолжительность : 16 м.
Вид битрейта : Постоянный
Битрейт : 448 Кбит/сек
Каналы : 6 каналов
Расположение каналов : Front: L C R, Side: L R, LFE
Частота : 48,0 КГц
Битовая глубина : 16 бит
Метод сжатия : С потерями
Задержка видео : -408 мс.
Размер потока : 53,0 Мбайт (5%)
Аудио #3
Идентификатор : 189 (0xBD)-130 (0x82)
Формат : AC-3
Формат/Информация : Audio Coding 3
Расширение режима : CM (complete main)
Параметр Endianness формата : Big
Режим смешивания : DVD-Video
Продолжительность : 16 м.
Вид битрейта : Постоянный
Битрейт : 448 Кбит/сек
Каналы : 6 каналов
Расположение каналов : Front: L C R, Side: L R, LFE
Частота : 48,0 КГц
Битовая глубина : 16 бит
Метод сжатия : С потерями
Задержка видео : -408 мс.
Размер потока : 53,0 Мбайт (5%)
Аудио #4
Идентификатор : 189 (0xBD)-131 (0x83)
Формат : AC-3
Формат/Информация : Audio Coding 3
Расширение режима : CM (complete main)
Параметр Endianness формата : Big
Режим смешивания : DVD-Video
Продолжительность : 16 м.
Вид битрейта : Постоянный
Битрейт : 448 Кбит/сек
Каналы : 6 каналов
Расположение каналов : Front: L C R, Side: L R, LFE
Частота : 48,0 КГц
Битовая глубина : 16 бит
Метод сжатия : С потерями
Задержка видео : -408 мс.
Размер потока : 53,0 Мбайт (5%)
Аудио #5
Идентификатор : 189 (0xBD)-132 (0x84)
Формат : AC-3
Формат/Информация : Audio Coding 3
Расширение режима : CM (complete main)
Параметр Endianness формата : Big
Режим смешивания : DVD-Video
Продолжительность : 16 м.
Вид битрейта : Постоянный
Битрейт : 192 Кбит/сек
Каналы : 2 канала
Расположение каналов : Front: L R
Частота : 48,0 КГц
Битовая глубина : 16 бит
Метод сжатия : С потерями
Задержка видео : -344 мс.
Размер потока : 22,7 Мбайт (2%)
Текст #1
Идентификатор : 189 (0xBD)-34 (0x22)
Формат : RLE
Формат/Информация : Run-length encoding
Режим смешивания : DVD-Video
Задержка видео : 4 с. 400 мс.
Текст #2
Идентификатор : 189 (0xBD)-35 (0x23)
Формат : RLE
Формат/Информация : Run-length encoding
Режим смешивания : DVD-Video
Задержка видео : 4 с. 400 мс.
Текст #3
Идентификатор : 189 (0xBD)-52 (0x34)
Формат : RLE
Формат/Информация : Run-length encoding
Режим смешивания : DVD-Video
Задержка видео : 1 с. 640 мс.
Текст #4
Идентификатор : 189 (0xBD)-53 (0x35)
Формат : RLE
Формат/Информация : Run-length encoding
Режим смешивания : DVD-Video
Задержка видео : 1 с. 640 мс.
Меню

Скриншоты меню

Скриншоты


_________________
Показать сообщения:    

Текущее время: Сегодня 12:55

Часовой пояс: GMT



Вы не можете начинать темы
Вы не можете отвечать на сообщения
Вы не можете редактировать свои сообщения
Вы не можете удалять свои сообщения
Вы не можете голосовать в опросах
Вы не можете прикреплять файлы к сообщениям
Вы не можете скачивать файлы