Важное объявление!
У Нас Все раздачи мультитрекерные, при нуле пиров в релизах, можете смело вставать на закачку!
 
Автор Сообщение

HUNTER

Стаж:
4 года 4 месяца
Сообщений:
56829

Репутация: 101

[+] [-]
Вне форума [Профиль] [ЛС]

Гекльберри Финн. Музыкальная экранизация по роману Марка Твена
Mark Twain's Huckleberry Finn: A Musical Adaptation
-
Страна: США
Студия: Reader's Digest, Apjac International | United Artists
Жанр: мюзикл, приключения
Год выпуска: 1974
Продолжительность: 01:49:47-Перевод: Профессиональный (двухголосый закадровый) НТВ+
Cубтитры: нет
Оригинальная аудиодорожка: английский-Режиссер: Дж. Ли Томпсон / J. Lee Thompson
В ролях: Джефф Ист, Пол Уинфилд, Харви Кормен, Дэвид Уэйн, Артур О’Коннелл, Гэри Меррил, Натали Транди...- | Релиз: -Описание: Гекльберри Финн живёт в небольшом городке Ганнибал с вдовой Дуглас и её сестрой, которые приютили бездомного сироту. Но однажды на горизонте появляется папаша Гека, которого все считали умершим. Оказывается, он прослышал, что его сын разбогател, и поэтому похищает Гека, требуя за него выкуп в тысячу долларов. Находясь в заточении у вечно пьяного отца в его лесной избушке, Гек находит способ сбежать, при этом он инсценирует собственную гибель, чтобы его не искали. Вскоре Гек встречает беглого раба Джима, и они вместе отправляются на плоту вниз по Миссисипи в "свободные штаты", где негр наконец-то перестанет быть рабом.-Семпл: http://sendfile.su/1065221-Тип релиза: HDTV 1080i
Контейнер: TS
Видео: 1920x1080i (16:9), 25.000 fps, AVC, ~7053 kbps, 0.136 bits/pixel
Аудио 1: Русский, 48.0 KHz, MPEG-1 Audio layer 2, 2 ch, 192 kbps
Аудио 2: English, 48.0 KHz, MPEG-1 Audio layer 2, 2 ch, 192 kbps

MediaInfo

General
ID : 1 (0x1)
Complete name : Mark Twain's Huckleberry Finn - A Musical Adaptation 1974 MGMHD.rus.eng.ts
Format : MPEG-TS
File size : 6.00 GiB
Duration : 1h 49mn
Overall bit rate mode : Variable
Overall bit rate : 7 827 Kbps
Maximum Overall bit rate : 35.5 Mbps
Video
ID : 4113 (0x1011)
Menu ID : 1 (0x1)
Format : AVC
Format/Info : Advanced Video Codec
Format profile : High@L4.0
Format settings, CABAC : Yes
Format settings, ReFrames : 4 frames
Format settings, GOP : M=4, N=28
Codec ID : 27
Duration : 1h 49mn
Bit rate mode : Variable
Bit rate : 7 053 Kbps
Maximum bit rate : 40.0 Mbps
Width : 1 920 pixels
Height : 1 080 pixels
Display aspect ratio : 16:9
Frame rate : 25.000 fps
Standard : Component
Color space : YUV
Chroma subsampling : 4:2:0
Bit depth : 8 bits
Scan type : Interlaced
Scan order : Top Field First
Bits/(Pixel*Frame) : 0.136
Stream size : 5.41 GiB (90%)
Color primaries : BT.709
Transfer characteristics : BT.709
Matrix coefficients : BT.709
Color range : Limited
Audio #1
ID : 4352 (0x1100)
Menu ID : 1 (0x1)
Format : MPEG Audio
Format version : Version 1
Format profile : Layer 2
Codec ID : 4
Duration : 1h 49mn
Bit rate mode : Constant
Bit rate : 192 Kbps
Channel(s) : 2 channels
Sampling rate : 48.0 KHz
Compression mode : Lossy
Stream size : 151 MiB (2%)
Language : Russian
Audio #2
ID : 4353 (0x1101)
Menu ID : 1 (0x1)
Format : MPEG Audio
Format version : Version 1
Format profile : Layer 2
Codec ID : 4
Duration : 1h 49mn
Bit rate mode : Constant
Bit rate : 192 Kbps
Channel(s) : 2 channels
Sampling rate : 48.0 KHz
Compression mode : Lossy
Stream size : 151 MiB (2%)
Language : English

Скриншоты


_________________
Показать сообщения:    

Текущее время: Сегодня 12:42

Часовой пояс: GMT



Вы не можете начинать темы
Вы не можете отвечать на сообщения
Вы не можете редактировать свои сообщения
Вы не можете удалять свои сообщения
Вы не можете голосовать в опросах
Вы не можете прикреплять файлы к сообщениям
Вы не можете скачивать файлы