Важное объявление!
У Нас Все раздачи мультитрекерные, при нуле пиров в релизах, можете смело вставать на закачку!
 
Автор Сообщение

HUNTER

Стаж:
4 года 4 месяца
Сообщений:
56772

Репутация: 101

[+] [-]
Вне форума [Профиль] [ЛС]

Где-то во времени / Somewhere in Time
Страна: США
Студия: Rastar Pictures
Жанр: фантастика, фэнтези, драма, мелодрама
Год выпуска: 1980
Продолжительность: 01:43:31
Перевод: Профессиональный (многоголосый закадровый) ОРТ
Перевод 2: Одноголосый закадровый Вадим Белов
Cубтитры: английские
Оригинальная аудиодорожка: английский
Режиссер: Жанно Шварц / Jeannot Szwarc
В ролях: Кристофер Рив, Джейн Сеймур, Кристофер Пламмер, Тереза Райт, Билл Эрвин, Джордж Восковек, Сьюзэн Френч, Джон Элвин, Эддра Гэйл, Одри Беннетт
Описание: Молодой Чикагский драматург Ричард неожиданно получает от неизвестной пожилой дамы старинные часы и призыв «Вернись ко мне», но не придаёт этому никакого значения. Через несколько лет он случайно находит фотографию актрисы Элис МакКена сделанную в 1912 году и понимает, что это именно та женщина от которой восемь лет назад он получил часы. Используя теорию о путешествиях во времени посредством самогипноза, Ричард встречается с ней лицом к лицу…

Сэмпл: http://multi-up.com/1031597
Тип релиза: BDRip 720p
Контейнер: MKV
Видео: MPEG4 Video (H264) 1280x694 (83:45) 23.976fps 6 200 Kbps
Аудио 1: Русский AC-3 / 2 ch / 48.0 KHz / 192 Kbps / ОРТ
Аудио 2: Русский AC-3 / 2 ch / 48.0 KHz / 192 Kbps / Вадим Белов
Аудио 3: Английский DTS / 2 ch / 48.0 KHz / 1509 Kbps / Original
Аудио 4: Английский AAC / 2 ch / 48.0 KHz / 80 kbps / Commentary
Формат субтитров: softsub (SRT)

MediaInfo

General
Unique ID : 194542306185372889216481018512021559907 (0x925B7C3C2DC76944AC43A81F356E9A63)
Complete name : D:\Somewhere.in.Time.1980.BDRip.720p.mkv
Format : Matroska
Format version : Version 4 / Version 2
File size : 5.91 GiB
Duration : 1h 43mn
Overall bit rate : 8 175 Kbps
Encoded date : UTC 2015-02-07 11:46:26
Writing application : mkvmerge v7.4.0 ('Circles') 64bit built on Dec 12 2014 12:19:56
Writing library : libebml v1.3.0 + libmatroska v1.4.1
DURATION : 01:38:17.391000000
NUMBER_OF_FRAMES : 1043
NUMBER_OF_BYTES : 31746
_STATISTICS_WRITING_APP : mkvmerge v7.4.0 ('Circles') 64bit built on Dec 12 2014 12:19:56
_STATISTICS_WRITING_DATE_UTC : 2015-02-07 11:46:26
_STATISTICS_TAGS : BPS DURATION NUMBER_OF_FRAMES NUMBER_OF_BYTES
Video
ID : 1
Format : AVC
Format/Info : Advanced Video Codec
Format profile : High@L4.1
Format settings, CABAC : Yes
Format settings, ReFrames : 9 frames
Codec ID : V_MPEG4/ISO/AVC
Duration : 1h 43mn
Nominal bit rate : 6 200 Kbps
Width : 1 280 pixels
Height : 694 pixels
Display aspect ratio : 1.85:1
Frame rate mode : Constant
Frame rate : 23.976 fps
Color space : YUV
Chroma subsampling : 4:2:0
Bit depth : 8 bits
Scan type : Progressive
Bits/(Pixel*Frame) : 0.291
Title : MPEG-4AVC@High Profile L4.1, 24/1.001 fps @ 6200 kbps
Writing library : x264 core 140 r2377+40 929f149 tMod [8-bit@4:2:0 X86_64]
Encoding settings : cabac=1 / ref=9 / deblock=1:-3:-3 / analyse=0x3:0x133 / me=umh / subme=11 / psy=1 / fade_compensate=0.00 / psy_rd=1.00:0.00 / mixed_ref=1 / me_range=32 / chroma_me=1 / trellis=2 / 8x8dct=1 / cqm=0 / deadzone=21,11 / fast_pskip=0 / chroma_qp_offset=-2 / threads=24 / lookahead_threads=2 / sliced_threads=0 / nr=0 / decimate=0 / interlaced=0 / bluray_compat=0 / constrained_intra=0 / fgo=0 / bframes=6 / b_pyramid=2 / b_adapt=2 / b_bias=0 / direct=3 / weightb=1 / open_gop=0 / weightp=2 / keyint=240 / keyint_min=23 / scenecut=40 / intra_refresh=0 / rc_lookahead=60 / rc=2pass / mbtree=1 / bitrate=6200 / ratetol=1.0 / qcomp=0.60 / qpmin=0:0:0 / qpmax=69:69:69 / qpstep=4 / cplxblur=20.0 / qblur=0.5 / vbv_maxrate=22000 / vbv_bufsize=22000 / nal_hrd=none / filler=0 / ip_ratio=1.40 / aq=1:0.60 / aq-sensitivity=10.00 / aq-factor=1.00:1.00:1.00 / aq2=0 / aq3=0
Language : English
Default : Yes
Forced : No
DURATION : 01:43:30.997000000
NUMBER_OF_FRAMES : 148915
NUMBER_OF_BYTES : 4812541567
_STATISTICS_WRITING_APP : mkvmerge v7.4.0 ('Circles') 64bit built on Dec 12 2014 12:19:56
_STATISTICS_WRITING_DATE_UTC : 2015-02-07 11:46:26
_STATISTICS_TAGS : BPS DURATION NUMBER_OF_FRAMES NUMBER_OF_BYTES
Audio #1
ID : 2
Format : AC-3
Format/Info : Audio Coding 3
Mode extension : CM (complete main)
Format settings, Endianness : Big
Codec ID : A_AC3
Duration : 1h 43mn
Bit rate mode : Constant
Bit rate : 192 Kbps
Channel(s) : 2 channels
Channel positions : Front: L R
Sampling rate : 48.0 KHz
Bit depth : 16 bits
Compression mode : Lossy
Stream size : 142 MiB (2%)
Title : MVO (OPT)
Language : Russian
Default : Yes
Forced : No
Audio #2
ID : 3
Format : AC-3
Format/Info : Audio Coding 3
Mode extension : CM (complete main)
Format settings, Endianness : Big
Codec ID : A_AC3
Duration : 1h 43mn
Bit rate mode : Constant
Bit rate : 192 Kbps
Channel(s) : 2 channels
Channel positions : Front: L R
Sampling rate : 48.0 KHz
Bit depth : 16 bits
Compression mode : Lossy
Stream size : 142 MiB (2%)
Title : AVO (Vadim Belov)
Language : Russian
Default : No
Forced : No
Audio #3
ID : 4
Format : DTS
Format/Info : Digital Theater Systems
Mode : 16
Format settings, Endianness : Big
Codec ID : A_DTS
Duration : 1h 43mn
Bit rate mode : Constant
Bit rate : 1 509 Kbps
Channel(s) : 2 channels
Channel positions : Front: L R
Sampling rate : 48.0 KHz
Bit depth : 24 bits
Compression mode : Lossy
Stream size : 1.09 GiB (18%)
Title : English DTS-HD Core 5.1 @ 1509 kbps
Language : English
Default : No
Forced : No
Audio #4
ID : 5
Format : AAC
Format/Info : Advanced Audio Codec
Format profile : LC
Codec ID : A_AAC
Duration : 1h 43mn
Channel(s) : 2 channels
Channel positions : Front: L R
Sampling rate : 48.0 KHz
Compression mode : Lossy
Delay relative to video : 9ms
Title : English AAC 2.0 @ 80 kbps Commentary
Language : English
Default : No
Forced : No
Text
ID : 6
Format : UTF-8
Codec ID : S_TEXT/UTF8
Codec ID/Info : UTF-8 Plain Text
Language : English
Default : No
Forced : No
Menu
00:00:00.000 : en:00:00:00.000
00:04:15.005 : en:00:04:15.005
00:10:31.297 : en:00:10:31.297
00:18:09.255 : en:00:18:09.255
00:22:06.659 : en:00:22:06.659
00:25:51.216 : en:00:25:51.216
00:32:58.602 : en:00:32:58.602
00:37:49.767 : en:00:37:49.767
00:44:28.666 : en:00:44:28.666
00:53:58.944 : en:00:53:58.944
00:59:38.116 : en:00:59:38.116
01:11:47.762 : en:01:11:47.762
01:17:18.843 : en:01:17:18.843
01:23:53.070 : en:01:23:53.070
01:31:30.276 : en:01:31:30.276
01:38:03.419 : en:01:38:03.419

Скриншоты


_________________
Показать сообщения:    

Текущее время: Сегодня 19:25

Часовой пояс: GMT



Вы не можете начинать темы
Вы не можете отвечать на сообщения
Вы не можете редактировать свои сообщения
Вы не можете удалять свои сообщения
Вы не можете голосовать в опросах
Вы не можете прикреплять файлы к сообщениям
Вы не можете скачивать файлы