Важное объявление!
У Нас Все раздачи мультитрекерные, при нуле пиров в релизах, можете смело вставать на закачку!
 
Автор Сообщение

HUNTER

Стаж:
4 года 4 месяца
Сообщений:
56722

Репутация: 101

[+] [-]
Вне форума [Профиль] [ЛС]

Гарри Поттер и философский камень / Harry Potter and the Sorcerer's Stone
«Путешествие в твою мечту»
-
Год выпуска: 2001
Страна: Великобритания, США
Жанр: Фэнтези, приключения, семейный
Продолжительность:: 02:32:21
Перевод 1: Профессиональный (дублированный) Blu-ray CEE
Перевод 2: Профессиональный (двухголосый закадровый) П. Гланц и И. Королёва
Перевод 3: Профессиональный (многоголосый закадровый) С.Р.И.
Перевод 4: Авторский (одноголосый закадровый) С. Рябов
Субтитры: Русские (полные, форсированные), украинские (полные), английские
Оригинальная аудиодорожка: Английская
Главы: Присутствуют, сохранены оригинальные
-
Режиссер: Крис Коламбус / Chris Columbus
В ролях:: Ричард Харрис, Мэгги Смит, Робби Колтрейн, Саундерс Триплетс, Дэниэл Рэдклифф, Фиона Шоу, Гарри Меллинг, Ричард Гриффитс, Дерек Дэмэн, Йен Харт, Бен Боровецки, Верн Троер, Джон Харт, Ричард Бреммер, Джеральдин Соммервиль, Джули Уолтерс, Бонни Райт, Крис Ранкин, Джеймс Фелпс, Оливер Фелпс, Руперт Гринт
О фильме:: Жизнь десятилетнего Гарри Поттера нельзя назвать сладкой: его родители умерли, едва ему исполнился год, а от дяди и тётки, взявших сироту на воспитание, достаются лишь тычки да подзатыльники. Но в одиннадцатый день рождения Гарри всё меняется. Странный гость, неожиданно появившийся на пороге, приносит письмо, из которого мальчик узнаёт, что на самом деле он волшебник и принят в Хогвартс — школу магии. А уже через пару недель Гарри будет мчаться в поезде Хогвартс-экспресс навстречу новой жизни, где его ждут невероятные приключения, верные друзья и самое главное — ключ к разгадке тайны смерти его родителей.
-
Автор рипа: fallen4uk
-
Качество: BDRip-720р (источник: / Blu-ray / 1080p) [HARRY_POTTER_COLLECTION_HDCLUB]
Формат: MKV
Видео: 1280x530 (2.40:1), 23,976 fps, MPEG-4 AVC, ~6800 kbps avg, 0.418 bit/pixel
Аудио #1: 48 kHz, AC3, 3/2 (L,C,R,l,r) + LFE ch, ~640 kbps avg |Russian - DUB - BD CEE|
Аудио #2: 48 kHz, AC3, 3/2 (L,C,R,l,r) + LFE ch, ~448 kbps avg |Russian - DVO - П. Гланц и И. Королёва|
Аудио #3: 48 kHz, AC3, 3/2 (L,C,R,l,r) + LFE ch, ~448 kbps avg |Russian - MVO - С.Р.И.|
Аудио #4: 48 kHz, DTS, 3/2 (L,C,R,l,r) + LFE ch, ~755 kbps avg |Russian - AVO - С. Рябов|
Аудио #5: 48 kHz, AC3, 2/0 (L,R) ch, ~192 kbps avg |Ukrainian - MVO - 1+1|
Аудио #6: 48 kHz, AC3, 2/0 (L,R) ch, ~192 kbps avg |Ukrainian - MVO - Новый канал|
Аудио #7: 48 kHz, DTS, 3/2 (L,C,R,l,r) + LFE ch, ~1509 kbps avg |English - Original|
Скачать: Семпл

Скриншоты




MediaInfo

Полное имя : Harry.Potter.and.the.Sorcerer's.Stone.2001.720p.BluRay.Rus.Ukr.Eng.-by.fallen4uk.mkv
Формат : Matroska
Версия формата : Version 2
Размер файла : 11,7 Гбайт
Продолжительность : 2 ч. 32 м.
Общий поток : 11,0 Мбит/сек
Дата кодирования : UTC 2014-12-02 07:02:33
Программа кодирования : mkvmerge v5.2.0 ('I can't explain') built on Dec 18 2011 18:12:03
Библиотека кодирования : libebml v1.2.3 + libmatroska v1.3.0
Видео
Идентификатор : 1
Формат : AVC
Формат/Информация : Advanced Video Codec
Профиль формата : High@L4.1
Параметр CABAC формата : Да
Параметр ReFrames формата : 8 кадров
Идентификатор кодека : V_MPEG4/ISO/AVC
Продолжительность : 2 ч. 32 м.
Битрейт : 6800 Кбит/сек
Ширина : 1280 пикселей
Высота : 530 пикселей
Соотношение сторон : 2,40:1
Режим частоты кадров : Постоянный
Частота кадров : 23,976 кадра/сек
Цветовое пространство : YUV
Субдискретизация насыщенности : 4:2:0
Битовая глубина : 8 бит
Тип развёртки : Прогрессивная
Бит/(Пиксели*Кадры) : 0.418
Размер потока : 7,00 Гбайт (60%)
Заголовок : Гарри Поттер и философский камень / Harry Potter and the Sorcerer's Stone (2001) BDRip 720 by fallen4uk
Библиотека кодирования : x264 core 142 r2491 24e4fed
Настройки программы : cabac=1 / ref=9 / deblock=1:-3:-3 / analyse=0x3:0x113 / me=umh / subme=11 / psy=1 / psy_rd=1.20:0.15 / mixed_ref=1 / me_range=32 / chroma_me=1 / trellis=2 / 8x8dct=1 / cqm=0 / deadzone=21,11 / fast_pskip=1 / chroma_qp_offset=-3 / threads=6 / lookahead_threads=1 / sliced_threads=0 / nr=0 / decimate=1 / interlaced=0 / bluray_compat=0 / constrained_intra=0 / bframes=14 / b_pyramid=1 / b_adapt=2 / b_bias=0 / direct=3 / weightb=1 / open_gop=0 / weightp=2 / keyint=230 / keyint_min=23 / scenecut=40 / intra_refresh=0 / rc_lookahead=40 / rc=2pass / mbtree=0 / bitrate=6800 / ratetol=1.0 / qcomp=0.60 / qpmin=0 / qpmax=51 / qpstep=4 / cplxblur=20.0 / qblur=0.5 / vbv_maxrate=50000 / vbv_bufsize=62500 / nal_hrd=none / filler=0 / ip_ratio=1.40 / pb_ratio=1.30 / aq=2:0.90
Язык : English
Default : Да
Forced : Нет
Аудио #1
Идентификатор : 2
Формат : AC-3
Формат/Информация : Audio Coding 3
Расширение режима : CM (complete main)
Параметр Endianness формата : Big
Идентификатор кодека : A_AC3
Продолжительность : 2 ч. 32 м.
Вид битрейта : Постоянный
Битрейт : 640 Кбит/сек
Каналы : 6 каналов
Расположение каналов : Front: L C R, Side: L R, LFE
Частота : 48,0 КГц
Битовая глубина : 16 бит
Метод сжатия : С потерями
Размер потока : 697 Мбайт (6%)
Заголовок : AC3 @ 640 kbit/s - Dub, Blu-ray CEE
Язык : Russian
Default : Да
Forced : Нет
Аудио #2
Идентификатор : 3
Формат : AC-3
Формат/Информация : Audio Coding 3
Расширение режима : CM (complete main)
Параметр Endianness формата : Big
Идентификатор кодека : A_AC3
Продолжительность : 2 ч. 32 м.
Вид битрейта : Постоянный
Битрейт : 448 Кбит/сек
Каналы : 6 каналов
Расположение каналов : Front: L C R, Side: L R, LFE
Частота : 48,0 КГц
Битовая глубина : 16 бит
Метод сжатия : С потерями
Размер потока : 488 Мбайт (4%)
Заголовок : AC3 @ 448 kbit/s - DVO, Гланц и Королёва
Язык : Russian
Default : Нет
Forced : Нет
Аудио #3
Идентификатор : 4
Формат : AC-3
Формат/Информация : Audio Coding 3
Расширение режима : CM (complete main)
Параметр Endianness формата : Big
Идентификатор кодека : A_AC3
Продолжительность : 2 ч. 32 м.
Вид битрейта : Постоянный
Битрейт : 448 Кбит/сек
Каналы : 6 каналов
Расположение каналов : Front: L C R, Side: L R, LFE
Частота : 48,0 КГц
Битовая глубина : 16 бит
Метод сжатия : С потерями
Размер потока : 488 Мбайт (4%)
Заголовок : AC3 @ 448 kbit/s - MVO, С.Р.И
Язык : Russian
Default : Нет
Forced : Нет
Аудио #4
Идентификатор : 5
Формат : DTS
Формат/Информация : Digital Theater Systems
Режим : 16
Параметр Endianness формата : Big
Идентификатор кодека : A_DTS
Продолжительность : 2 ч. 32 м.
Вид битрейта : Постоянный
Битрейт : 755 Кбит/сек
Каналы : 6 каналов
Расположение каналов : Front: L C R, Side: L R, LFE
Частота : 48,0 КГц
Битовая глубина : 24 бит
Метод сжатия : С потерями
Размер потока : 822 Мбайт (7%)
Заголовок : DTS @ 755 kbit/s - AVO, Рябов
Язык : Russian
Default : Нет
Forced : Нет
Аудио #5
Идентификатор : 6
Формат : AC-3
Формат/Информация : Audio Coding 3
Расширение режима : CM (complete main)
Параметр Endianness формата : Big
Идентификатор кодека : A_AC3
Продолжительность : 2 ч. 32 м.
Вид битрейта : Постоянный
Битрейт : 192 Кбит/сек
Каналы : 2 канала
Расположение каналов : Front: L R
Частота : 48,0 КГц
Битовая глубина : 16 бит
Метод сжатия : С потерями
Размер потока : 209 Мбайт (2%)
Заголовок : AC3 @ 192 kbit/s - MVO, 1+1
Язык : Ukrainian
Default : Нет
Forced : Нет
Аудио #6
Идентификатор : 7
Формат : AC-3
Формат/Информация : Audio Coding 3
Расширение режима : CM (complete main)
Параметр Endianness формата : Big
Идентификатор кодека : A_AC3
Продолжительность : 2 ч. 32 м.
Вид битрейта : Постоянный
Битрейт : 192 Кбит/сек
Каналы : 2 канала
Расположение каналов : Front: L R
Частота : 48,0 КГц
Битовая глубина : 16 бит
Метод сжатия : С потерями
Размер потока : 209 Мбайт (2%)
Заголовок : AC3 @ 192 kbit/s - MVO, Новый канал
Язык : Ukrainian
Default : Нет
Forced : Нет
Аудио #7
Идентификатор : 8
Формат : DTS
Формат/Информация : Digital Theater Systems
Режим : 16
Параметр Endianness формата : Big
Идентификатор кодека : A_DTS
Продолжительность : 2 ч. 32 м.
Вид битрейта : Постоянный
Битрейт : 1509 Кбит/сек
Каналы : 6 каналов
Расположение каналов : Front: L C R, Side: L R, LFE
Частота : 48,0 КГц
Битовая глубина : 16 бит
Метод сжатия : С потерями
Размер потока : 1,61 Гбайт (14%)
Заголовок : DTS @ 1509 kbit/s - Original
Язык : English
Default : Нет
Forced : Нет
Текст #1
Идентификатор : 9
Формат : UTF-8
Идентификатор кодека : S_TEXT/UTF8
Идентификатор кодека/Информация : UTF-8 Plain Text
Заголовок : Forced
Язык : Russian
Default : Да
Forced : Нет
Текст #2
Идентификатор : 10
Формат : UTF-8
Идентификатор кодека : S_TEXT/UTF8
Идентификатор кодека/Информация : UTF-8 Plain Text
Заголовок : Full
Язык : Russian
Default : Нет
Forced : Нет
Текст #3
Идентификатор : 11
Формат : UTF-8
Идентификатор кодека : S_TEXT/UTF8
Идентификатор кодека/Информация : UTF-8 Plain Text
Заголовок : Full
Язык : Ukrainian
Default : Нет
Forced : Нет
Текст #4
Идентификатор : 12
Формат : UTF-8
Идентификатор кодека : S_TEXT/UTF8
Идентификатор кодека/Информация : UTF-8 Plain Text
Заголовок : Full
Язык : Ukrainian
Default : Нет
Forced : Нет
Меню
00:00:00.000 : en:Doorstep Delivery
00:04:05.411 : en:Vanishing Glass
00:08:11.157 : en:Letters From No One
00:12:17.403 : en:Keeper of the Keys
00:18:25.270 : en:Diagon Alley
00:21:43.635 : en:Gringotts
00:24:41.646 : en:Ollivanders
00:28:49.561 : en:The Boy Who Lived
00:31:05.196 : en:Platform 9 3/4
00:34:05.543 : en:Ron and Hermione
00:37:49.600 : en:Welcome to Hogwarts
00:41:29.487 : en:Sorting Hat
00:46:13.437 : en:Nick and Other Residents
00:50:29.026 : en:Potions and Parcels
00:55:04.301 : en:New Seeker
01:00:55.652 : en:Three-Headed Sentinel
01:03:43.986 : en:Facts and Feathers
01:07:48.230 : en:Mountain Troll
01:13:49.258 : en:Quidditch
01:20:17.979 : en:Interference Overcome
01:23:54.529 : en:Christmas Gift
01:28:32.473 : en:Cloaked in Darkness
01:31:42.497 : en:Mirror of Erised
01:36:42.630 : en:Norbert
01:42:34.815 : en:Forbidden Forest
01:49:05.038 : en:Up to Something
01:53:21.628 : en:Through the Trapdoor
01:58:09.749 : en:Wizards' Chess
02:03:44.750 : en:Sacrifice Play
02:06:56.108 : en:Man with Two Faces
02:10:55.347 : en:Magic Touch
02:14:18.884 : en:Mark of Love
02:17:29.574 : en:House Cup Winner
02:21:44.662 : en:Not Really Going Home
02:24:10.808 : en:End Credits

_________________
Показать сообщения:    

Текущее время: Сегодня 14:50

Часовой пояс: GMT



Вы не можете начинать темы
Вы не можете отвечать на сообщения
Вы не можете редактировать свои сообщения
Вы не можете удалять свои сообщения
Вы не можете голосовать в опросах
Вы не можете прикреплять файлы к сообщениям
Вы не можете скачивать файлы