Важное объявление!
У Нас Все раздачи мультитрекерные, при нуле пиров в релизах, можете смело вставать на закачку!
 
Автор Сообщение

Vanya_o3

[Профиль] [ЛС]

GREMLIN CREATIVE STUDIO
представляетГарри Поттер и Особая уличная магия / Harry Potter and the Special Street Magic / 1.1
Страна: USA
Жанр: комедия
Год выпуска: 2009 (2011)
Продолжительность: 02:24:58
Перевод: Профессиональный (двухголосый закадровый) Доп.инфо о переводе Gremlin Creative Studio
Cубтитры: нет
Режиссер: Дэвид Йейтс / David Yates
В ролях: Даниэл Редклифф, Эмма Уотсон, Руперт Гринт, Алан Рикман, Робби Колтрейн, Майкл Гэмбон, Брендан Глисон, Мэгги Смит, Фиона Шоу, Дэвид Тьюлис и др.
Описание: После основательного восстания Темного Владыки и его оборзевших подчиненных, которые буйствуют на улицах средь бела дня, жить стало реально стремно. Поэтому все каникулы Гарри катается на метро и бродит по забегаловкам у подземки в поисках случайных связей. Но тут появляется гнилая рука Ленина и рушит его планы. Хочешь, не хочешь, а на шестой год обучения ехать надо. Но и в Хогвартсе всё неспокойно. Если с учебой в этом году более-менее, то в делах сердечных наступила черная полоса измен. Рыжего как никогда тянет к Гарри, и Малфой, оказывается, тоже неравнодушен к нашему герою. Всем нужен Гарри! Даже старику Ленину, который на старости лет решил передать ему свои тайны, хранящиеся в самых недрах его драгоценного сокровища. Тайны Особой уличной магии...
Доп. информация: перевод от "Gremlin Creative Studio", создателей "Гарри Поттер и Партия Ленина" , т.е. там полно всякой ругани, мата и пошлости. Ввиду этого, тем, кого не устраивает что-либо из вышесказанного, убедительная просьба НЕ КАЧАТЬ фильм, дабы не разводить демагогию в бестолковых постах.
p.s.: релиз состоялся 20 января 2011г.
Официальный сайт
Качество видео: HDRip
Формат видео: MKV
Видео: H264, 1280x532, 2.40:1, 23.976 fps, 2 610 Kbps
Аудио: AC-3, 48.0 KHz, 256 Kbps, Stereo (Front: L R), 16 bits

MediaInfo

General
UniqueID : 239027850990611394241354535435359445974 (0xB3D316EE7CDFC18994FC1639C74763D6)
Complete name : Гарри Поттер(6) и Особая Уличная Магия_HDRip(1280).mkv
Format : Matroska
File size : 2.89 GiB
Duration : 2h 24mn
Overall bit rate : 2 856 Kbps
Encoded date : UTC 2011-01-31 13:52:09
Writing application : mkvmerge v3.4.0 ('Rapunzel') сборка от May 15 2010 09:38:20
Writing library : libebml v0.8.0 + libmatroska v0.9.0
Video
ID : 1
Format : AVC
Format/Info : Advanced Video Codec
Format profile : High@L3.1
Format settings, CABAC : Yes
Format settings, ReFrames : 4 frames
Codec ID : V_MPEG4/ISO/AVC
Duration : 2h 24mn
Bit rate : 2 610 Kbps
Width : 1 280 pixels
Height : 532 pixels
Display aspect ratio : 2.40:1
Frame rate : 23.976 fps
Color space : YUV
Chroma subsampling : 4:2:0
Bit depth : 8 bits
Scan type : Progressive
Bits/(Pixel*Frame) : 0.160
Stream size : 2.58 GiB (89%)
Title : GCS_HP6_1.1
Writing library : x264 core 108 r1790bm 8eaf8a6
Encoding settings : cabac=1 / ref=3 / deblock=1:0:0 / analyse=0x3:0x113 / me=hex / subme=7 / psy=1 / psy_rd=1.00:0.00 / mixed_ref=1 / me_range=16 / chroma_me=1 / trellis=1 / 8x8dct=1 / cqm=0 / deadzone=21,11 / fast_pskip=1 / chroma_qp_offset=-2 / threads=3 / sliced_threads=0 / nr=0 / decimate=1 / interlaced=0 / constrained_intra=0 / bframes=3 / b_pyramid=2 / b_adapt=1 / b_bias=0 / direct=1 / weightb=1 / open_gop=0 / weightp=2 / keyint=250 / keyint_min=23 / scenecut=40 / intra_refresh=0 / rc_lookahead=40 / rc=abr / mbtree=1 / bitrate=2610 / ratetol=1.0 / qcomp=0.60 / qpmin=10 / qpmax=51 / qpstep=4 / ip_ratio=1.40 / aq=1:1.00
Language : Russian
Audio
ID : 2
Format : AC-3
Format/Info : Audio Coding 3
Mode extension : CM (complete main)
Codec ID : A_AC3
Duration : 2h 24mn
Bit rate mode : Constant
Bit rate : 256 Kbps
Channel(s) : 2 channels
Channel positions : Front: L R
Sampling rate : 48.0 KHz
Bit depth : 16 bits
Compression mode : Lossy
Stream size : 265 MiB (9%)
Title : GCS_AC3_256kb/s_Stereo_1.1
Language : Russian

Скриншот с названием фильма

Скриншоты





 
Показать сообщения:    

Текущее время: Сегодня 03:57

Часовой пояс: GMT



Вы не можете начинать темы
Вы не можете отвечать на сообщения
Вы не можете редактировать свои сообщения
Вы не можете удалять свои сообщения
Вы не можете голосовать в опросах
Вы не можете прикреплять файлы к сообщениям
Вы не можете скачивать файлы