Важное объявление!
У Нас Все раздачи мультитрекерные, при нуле пиров в релизах, можете смело вставать на закачку!
 
Автор Сообщение

HUNTER

Стаж:
4 года 4 месяца
Сообщений:
56733

Репутация: 101

[+] [-]
Вне форума [Профиль] [ЛС]

Галлиполи / Gallipoli
Год выпуска: 1981
Страна: Австралия
Жанр: драма, приключения, военный, история
Продолжительность: 01:50:53
Перевод: профессиональный двухголосый закадровый (Премьер Видео Фильм)
Cубтитры: русские, английские
Оригинальная аудиодорожка: английская
Оглавление: 15 англоязычных глав
Режиссёр: Питер Уир /Peter Weir/
В ролях: Мэл Гибсон /Mel Gibson/, Марк Ли /Mark Lee/, Билл Хантер /Bill Hunter/, Роберт Грубб /Robert Grubb/, Билл Керр /Bill Kerr/, Джон Моррис /John Morris/, Харольд Хопкинс /Harold Hopkins/, Тим МакКензи /Tim McKenzie/, Дэвид Арге /David Argue/
Описание:
1915 год. Два романтически настроенных молодых человека вступают в ряды австралийских вооруженных сил. После ускоренной подготовки в «учебке», затерянной в песках близ древнеегипетских пирамид, приятелей отправляют в полк, который ведет боевые действия против турецкой армии.
Друзья еще не знают, что им предстоит принять участие в битве при Галлиполи — одном из самых кровавых сражений первой мировой войны…
Дополнительная информация:
IMDB User Rating→: 7.5/10 (28,172 votes)
Рейтинг фильма КиноПоиск.Ru→: 7.649 (1 121 голос)
  • Русские субтитры набил по озвучке ПВФ с некоторыми правками.
    Качество: BDRip (by DON)
    Контейнер: MKV
    Видеопоток: 1280x544p, 24.000 fps, x264 ~13258 kbps
    Аудиопоток №1 (RUS): DD 2.0, 48 kHz, 192 kbps | профессиональный двухголосый закадровый (Премьер Видео Фильм)
    Аудиопоток №2 (ENG): DD 5.1, 48 kHz, 640 kbps
    Субтитры №1 (RUS): SRT/UTF8
    Субтитры №2 (ENG): SRT/UTF8
    Сэмпл: Яндекс.Диск→, nekaka→, sendspace→

    x264 Log

    Код:
    x264 [info]: frame I:912   Avg QP:19.23  size:128952
    x264 [info]: frame P:29399 Avg QP:20.56  size: 78591
    x264 [info]: frame B:129362 Avg QP:21.43  size: 66467
    x264 [info]: consecutive B-frames:  0.9%  1.0%  5.7%  9.8% 12.1% 53.6%  4.3%  1.7%  1.6%  1.7%  2.4%  4.5%  0.6%
    x264 [info]: encoded 159673 frames, 3.61 fps, 13258.77 kb/s, duration 12:16:50.07

    MediaInfo

    Код:
    General
    Unique ID                                : 186651863875752736553105830351565294742 (0x8C6BD764C57D7CA3A9A8A60B2A850C96)
    Complete name                            : Gallipoli.1981.720p.BDRip.x264.DD.SRT-DON.mkv
    Format                                   : Matroska
    Format version                           : Version 4 / Version 2
    File size                                : 10.9 GiB
    Duration                                 : 1h 50mn
    Overall bit rate                         : 14.1 Mbps
    Movie name                               : Gallipoli (1981) 720p BDRip by DON
    Encoded date                             : UTC 2015-08-11 23:50:30
    Writing application                      : mkvmerge v7.8.0 ('River Man') 64bit built on Mar 27 2015 16:31:37
    Writing library                          : libebml v1.3.1 + libmatroska v1.4.2
    DURATION                                 : 01:50:19.524000000
    NUMBER_OF_FRAMES                         : 1085
    NUMBER_OF_BYTES                          : 63215
    _STATISTICS_WRITING_APP                  : mkvmerge v7.8.0 ('River Man') 64bit built on Mar 27 2015 16:31:37
    _STATISTICS_WRITING_DATE_UTC             : 2015-08-11 23:50:30
    _STATISTICS_TAGS                         : BPS DURATION NUMBER_OF_FRAMES NUMBER_OF_BYTES
    Video
    ID                                       : 1
    Format                                   : AVC
    Format/Info                              : Advanced Video Codec
    Format profile                           : High@L4.1
    Format settings, CABAC                   : Yes
    Format settings, ReFrames                : 12 frames
    Codec ID                                 : V_MPEG4/ISO/AVC
    Duration                                 : 1h 50mn
    Bit rate                                 : 13.0 Mbps
    Width                                    : 1 280 pixels
    Height                                   : 544 pixels
    Display aspect ratio                     : 2.35:1
    Frame rate mode                          : Constant
    Frame rate                               : 24.000 fps
    Color space                              : YUV
    Chroma subsampling                       : 4:2:0
    Bit depth                                : 8 bits
    Scan type                                : Progressive
    Bits/(Pixel*Frame)                       : 0.777
    Stream size                              : 10.1 GiB (92%)
    Title                                    : 1280x544, 24.000 fps, x264 ~13258 kbps
    Writing library                          : x264 core 146 r2538kMod 121396c
    Encoding settings                        : cabac=1 / ref=12 / deblock=1:-3:-3 / analyse=0x3:0x133 / me=umh / subme=10 / psy=1 / fade_compensate=0.00 / psy_rd=1.05:0.00 / mixed_ref=1 / me_range=32 / chroma_me=1 / trellis=2 / 8x8dct=1 / cqm=0 / deadzone=21,11 / fast_pskip=0 / chroma_qp_offset=-2 / threads=6 / lookahead_threads=1 / sliced_threads=0 / nr=0 / decimate=1 / interlaced=0 / bluray_compat=0 / constrained_intra=0 / fgo=0 / bframes=12 / b_pyramid=2 / b_adapt=2 / b_bias=0 / direct=3 / weightb=1 / open_gop=0 / weightp=2 / keyint=250 / keyint_min=24 / scenecut=40 / intra_refresh=0 / rc=crf / mbtree=0 / crf=19.0000 / qcomp=0.70 / qpmin=0 / qpmax=69 / qpstep=4 / ip_ratio=1.25 / pb_ratio=1.10 / aq=1:0.60
    Language                                 : English
    Default                                  : Yes
    Forced                                   : No
    DURATION                                 : 01:50:53.042000000
    NUMBER_OF_FRAMES                         : 159673
    NUMBER_OF_BYTES                          : 11026393358
    _STATISTICS_WRITING_APP                  : mkvmerge v7.8.0 ('River Man') 64bit built on Mar 27 2015 16:31:37
    _STATISTICS_WRITING_DATE_UTC             : 2015-08-11 23:50:30
    _STATISTICS_TAGS                         : BPS DURATION NUMBER_OF_FRAMES NUMBER_OF_BYTES
    Audio #1
    ID                                       : 2
    Format                                   : AC-3
    Format/Info                              : Audio Coding 3
    Mode extension                           : CM (complete main)
    Format settings, Endianness              : Big
    Codec ID                                 : A_AC3
    Duration                                 : 1h 50mn
    Bit rate mode                            : Constant
    Bit rate                                 : 192 Kbps
    Channel(s)                               : 2 channels
    Channel positions                        : Front: L R
    Sampling rate                            : 48.0 KHz
    Bit depth                                : 16 bits
    Compression mode                         : Lossy
    Stream size                              : 152 MiB (1%)
    Title                                    : RUS DVO Премьер Видео Фильм DD 2.0, 48 kHz, 192 kbps
    Language                                 : Russian
    Default                                  : Yes
    Forced                                   : No
    Audio #2
    ID                                       : 3
    Format                                   : AC-3
    Format/Info                              : Audio Coding 3
    Mode extension                           : CM (complete main)
    Format settings, Endianness              : Big
    Codec ID                                 : A_AC3
    Duration                                 : 1h 50mn
    Bit rate mode                            : Constant
    Bit rate                                 : 640 Kbps
    Channel(s)                               : 6 channels
    Channel positions                        : Front: L C R, Side: L R, LFE
    Sampling rate                            : 48.0 KHz
    Bit depth                                : 16 bits
    Compression mode                         : Lossy
    Stream size                              : 508 MiB (5%)
    Title                                    : ENG DD 5.1, 48 kHz, 640 kbps
    Language                                 : English
    Default                                  : No
    Forced                                   : No
    Text #1
    ID                                       : 4
    Format                                   : UTF-8
    Codec ID                                 : S_TEXT/UTF8
    Codec ID/Info                            : UTF-8 Plain Text
    Title                                    : RUS SRT
    Language                                 : Russian
    Default                                  : No
    Forced                                   : No
    Text #2
    ID                                       : 5
    Format                                   : UTF-8
    Codec ID                                 : S_TEXT/UTF8
    Codec ID/Info                            : UTF-8 Plain Text
    Title                                    : ENG SRT
    Language                                 : English
    Default                                  : No
    Forced                                   : No
    Menu
    00:00:00.000                             : en:How Fast Can You Run?
    00:09:42.917                             : en:News of the War
    00:17:31.792                             : en:The Kimberly Gift
    00:22:42.542                             : en:Lads for the Light Horse
    00:27:34.042                             : en:Heading for Perth
    00:40:42.042                             : en:Archy Lasalles
    00:50:01.667                             : en:Cairo
    00:56:59.458                             : en:The Wrong Shop
    01:02:51.125                             : en:We Train Together
    01:15:19.250                             : en:The Landing at Anzac Cove
    01:24:39.167                             : en:Lone Pine
    01:31:32.458                             : en:Off the Hook
    01:34:37.708                             : en:Go Ahead as Planned
    01:41:23.875                             : en:An Urgent Message
    01:47:59.625                             : en:End Credits

    Скриншоты


    Source vs. DON



  • _________________
    Показать сообщения:    

    Текущее время: Сегодня 02:00

    Часовой пояс: GMT



    Вы не можете начинать темы
    Вы не можете отвечать на сообщения
    Вы не можете редактировать свои сообщения
    Вы не можете удалять свои сообщения
    Вы не можете голосовать в опросах
    Вы не можете прикреплять файлы к сообщениям
    Вы не можете скачивать файлы