Важное объявление!
У Нас Все раздачи мультитрекерные, при нуле пиров в релизах, можете смело вставать на закачку!
 
Автор Сообщение

HUNTER

Стаж:
4 года 4 месяца
Сообщений:
56772

Репутация: 101

[+] [-]
Вне форума [Профиль] [ЛС]

-
    Гадкий я
    Despicable Me
-Год выпуска: 2010
Страна: США
Студия: ''Illumination Entertainment''
Жанр: комедия, семейный, мультфильм
Продолжительность: 91 мин (01:30:50)
Перевод: профессиональный, полное дублирование (с лицензии)-Режиссер: Пьер Соффин, Крис Рено
Роли дублировали: Леонид Ярмольник, Марк Тишман, Михаил Георгиу, Наталья Гурзо, Алексей Колган и др.-Описание: Гадкий снаружи, но добрый внутри Грю намерен, тем не менее, закрепить за собой статус главного архизлодея в мире, для чего он решает выкрасть Луну при помощи созданной им армии миньонов. Дело осложняют конкуренты, вставляющие высокотехнические палки в колеса, и семейные обстоятельства в виде трех сироток, о которых Грю вынужден заботиться.
- -
Тех. информация:
Исходник: DVD9
Качество: DVDRip - 1.46 Gb
Формат: AVI
Кодек видео: XviD
Кодек аудио: AC3
Видео: 720x384 (1.88:1), 25 fps, XviD MPEG-4 ~1903 kbps avg, 0.28 bit/pixel
Аудио: Russian 48 kHz, AC3 Dolby Digital, 3/2 (L,C,R,l,r) + LFE ch, ~384 kbps
-

Скриншоты

-

Media Info

General
Complete name : J:\Ripped_DVD\Гадкий я (Despicable Me, 2010) DVDRip.avi
Format : AVI
Format/Info : Audio Video Interleave
File size : 1.46 GiB
Duration : 1h 30mn
Overall bit rate : 2 297 Kbps
Movie name : Гадкий я (Despicable Me, 2010) DVDRip
Director : encodding by Gambit
Writing application : VirtualDubModRus 1.5.10.2 (build 2542/release)
Copyright : RG Cartoons
Video
ID : 0
Format : MPEG-4 Visual
Format profile : Advanced Simple@L5
Format settings, BVOP : Yes
Format settings, QPel : No
Format settings, GMC : No warppoints
Format settings, Matrix : Default (MPEG)
Codec ID : XVID
Codec ID/Hint : XviD
Duration : 1h 30mn
Bit rate : 1 903 Kbps
Width : 720 pixels
Height : 384 pixels
Display aspect ratio : 1.875
Frame rate : 25.000 fps
Color space : YUV
Chroma subsampling : 4:2:0
Bit depth : 8 bits
Scan type : Progressive
Bits/(Pixel*Frame) : 0.275
Stream size : 1.21 GiB (83%)
Writing library : XviD 1.2.1 (UTC 2008-12-04)
Audio
ID : 1
Format : AC-3
Format/Info : Audio Coding 3
Mode extension : CM (complete main)
Codec ID : 2000
Duration : 1h 30mn
Bit rate mode : Constant
Bit rate : 384 Kbps
Channel(s) : 6 channels
Channel positions : Front: L C R, Side: L R, LFE
Sampling rate : 48.0 KHz
Bit depth : 16 bits
Stream size : 249 MiB (17%)
Alignment : Split accross interleaves
Interleave, duration : 40 ms (1.00 video frame)
Interleave, preload duration : 500 ms
--Источник:

_________________
Показать сообщения:    

Текущее время: Сегодня 13:28

Часовой пояс: GMT



Вы не можете начинать темы
Вы не можете отвечать на сообщения
Вы не можете редактировать свои сообщения
Вы не можете удалять свои сообщения
Вы не можете голосовать в опросах
Вы не можете прикреплять файлы к сообщениям
Вы не можете скачивать файлы