Важное объявление!
У Нас Все раздачи мультитрекерные, при нуле пиров в релизах, можете смело вставать на закачку!
 
Автор Сообщение

HUNTER

Стаж:
4 года 4 месяца
Сообщений:
56798

Репутация: 101

[+] [-]
Вне форума [Профиль] [ЛС]

-Геракл
Hercules

Год выпуска: 2014
Страна: США (Paramount Pictures, Metro-Goldwyn-Mayer)
Жанр: Боевик, Приключения
Продолжительность: 1:38:05
Перевод: Профессиональный дублированный (лицензия)
Режиссер: Бретт Рэтнер / Brett Ratner-Роли исполняли (дублировали):

Hercules - Дуэйн Джонсон (Александр Головчанский)
Amphiaraus - Иэн МакШейн (Александр Новиков)
Lord Cotys - Джон Хёрт (Владимир Еремин)
Autolycus - Руфус Сьюэлл (Денис Некрасов)
Tydeus - Аксель Хенни
Atalanta - Ингрид Больсё Бердаль (Наталья Грачева)
Iolaus - Рис Ричи (Прохор Чеховской)
King Eurystheus - Джозеф Файнс (Илья Бледный)
Rhesus - Тобиас Зантельман (Илья Хвостиков)
Sitacles - Питер Муллан (Борис Токарев)
Ergenia - Ребекка Фергюсон (Екатерина Виноградова)
Arius - Исаак Эндрюс (Даниил Трещов)
Megara - Ирина Шейк
-Описание: Более тысячи лет назад измученная душа скиталась по Земле, полубог, получеловек — Геракл — могучий сын царя богов Зевса, совершив все 12 подвигов, потерял семью и теперь находит утешение только в кровавых битвах.
За эти годы он собирает вокруг себя шестерых таких же потерянных воинов, единственным смыслом жизни для которых стали сражения и присутствие смертельной опасности. Эти мужчины и женщина никогда не задают вопрос, где, почему или с кем они идут сражаться; только, сколько им заплатят. Зная это, фракийский царь Котис нанимает этих воинов, чтобы они обучили его солдат и сделали из них самую сильную и великую армию всех времен.

Знаете ли вы, что...

  • Фильм основан на графическом романе «Hercules: The Thracian Wars» (2008).
  • Для того чтобы научиться удерживать равновесие при вождении колесницы, актеры ежедневно тренировались на протяжении 6 недель.
  • Лошадей, которых использовали на съемках фильма, тщательно тренировали на протяжении многих месяцев, чтобы они падали во время боя, а также тащили колесницу управляемую Гераклом и его соратниками.
  • Чтобы набрать необходимую для своей роли форму Дуэйн Джонсон тренировался на протяжении восьми месяцев.
  • Дуэйн Джонсон рассказал, что его борода была сделана из шерсти яка.
  • Специально для своей роли Ингрид Больсё Бердаль несколько месяцев обучалась стрельбе из лука у Стивена Ральфса.
  • Съемки фильма проходили в Будапеште (Венгрия). Были задействованы съемочные площадки Origio Film Studios.
  • Каждый съемочный день уходило по 4 часа, чтобы нанести весь необходимый грим на Дуэйна Джонсона.
  • Несмотря на то, что на момент начала съемок Дуэйн Джонсон только оправился после операции, он настоял на том, что желает сам сниматься в сценах сражений, не прибегая к помощи дублеров.
Премьера: 23 июля 2014 (24 июля 2014)
Релиз на Blu-Ray (DVD) (Россия): 1 декабря 2014
Бюджет: $100 000 000
Кассовые сборы: $226 788 614

. .
-Качество: BDRip (by Ash61)
Контейнер: MKV
Формат 3D: Half OverUnder / Вертикальная анаморфная стереопара
Порядок ракурсов: левый ракурс первый
Видео кодек: x264
Аудио кодек: AC3-Видео: AVC / 23,976 fps / 1920х1080p / 10.8 Mbps
Аудио:
#1 - Русский / AC3 / 48 KHz / 5.1 ch / 640 Kbps (Дубляж - BD 2D)
#2 - Английский / AC3 / 48 KHz / 5.1 ch / 640 Kbps (Original - BD 3D)
Субтитры: (SRT)
Вшитые (softsub):
#1 - Русские Форсированные (включены по умолчанию)
#2 - Русские Полные
#3 - English Full
#4 - English SDH
Внешние (UTF-8):
#1 - Русские Форсированные (включены по умолчанию)

MediaInfo

General
Unique ID : 212373494785636421809896064439402179094 (0x9FC5A5B576F9F6D7A2566BF82A912A16)
Complete name : E:\Hercules(2014)3D-halfOU(Ash61)\Hercules(2014)3D-halfOU(Ash61).mkv
Format : Matroska
Format version : Version 2
File size : 8.41 GiB
Duration : 1h 38mn
Overall bit rate : 12.3 Mbps
Movie name : Геракл / Hercules (2014) 3D
Encoded date : UTC 2014-12-04 18:14:59
Writing application : mkvmerge v5.8.0 ('No Sleep / Pillow') built on Sep 2 2012 15:37:04
Writing library : libebml v1.2.3 + libmatroska v1.3.0
Video
ID : 1
Format : AVC
Format/Info : Advanced Video Codec
Format profile : High@L4.1
Format settings, CABAC : Yes
Format settings, ReFrames : 4 frames
Codec ID : V_MPEG4/ISO/AVC
Duration : 1h 38mn
Bit rate : 10.8 Mbps
Width : 1 920 pixels
Height : 1 080 pixels
Display aspect ratio : 16:9
Frame rate mode : Constant
Frame rate : 23.976 fps
Color space : YUV
Chroma subsampling : 4:2:0
Bit depth : 8 bits
Scan type : Progressive
Bits/(Pixel*Frame) : 0.216
Stream size : 7.37 GiB (88%)
Title : BDRip by Ash61
Writing library : x264 core 138 r2358 9e941d1
Encoding settings : cabac=1 / ref=4 / deblock=1:-3:-3 / analyse=0x3:0x113 / me=umh / subme=10 / psy=1 / psy_rd=1.00:0.15 / mixed_ref=1 / me_range=32 / chroma_me=1 / trellis=2 / 8x8dct=1 / cqm=0 / deadzone=21,11 / fast_pskip=1 / chroma_qp_offset=-3 / threads=12 / lookahead_threads=3 / sliced_threads=0 / nr=0 / decimate=1 / interlaced=0 / bluray_compat=0 / constrained_intra=0 / bframes=11 / b_pyramid=2 / b_adapt=2 / b_bias=0 / direct=3 / weightb=1 / open_gop=0 / weightp=2 / keyint=250 / keyint_min=23 / scenecut=40 / intra_refresh=0 / rc_lookahead=60 / rc=crf / mbtree=1 / crf=17.0 / qcomp=0.70 / qpmin=0 / qpmax=69 / qpstep=4 / vbv_maxrate=40000 / vbv_bufsize=30000 / crf_max=0.0 / nal_hrd=none / frame-packing=4 / ip_ratio=1.40 / aq=1:0.70
Language : English
Default : Yes
Forced : No
Audio #1
ID : 2
Format : AC-3
Format/Info : Audio Coding 3
Mode extension : CM (complete main)
Format settings, Endianness : Big
Codec ID : A_AC3
Duration : 1h 38mn
Bit rate mode : Constant
Bit rate : 640 Kbps
Channel(s) : 6 channels
Channel positions : Front: L C R, Side: L R, LFE
Sampling rate : 48.0 KHz
Bit depth : 16 bits
Compression mode : Lossy
Stream size : 449 MiB (5%)
Title : Дубляж - BD 2D
Language : Russian
Default : Yes
Forced : No
Audio #2
ID : 3
Format : AC-3
Format/Info : Audio Coding 3
Mode extension : CM (complete main)
Format settings, Endianness : Big
Codec ID : A_AC3
Duration : 1h 38mn
Bit rate mode : Constant
Bit rate : 640 Kbps
Channel(s) : 6 channels
Channel positions : Front: L C R, Side: L R, LFE
Sampling rate : 48.0 KHz
Bit depth : 16 bits
Compression mode : Lossy
Stream size : 449 MiB (5%)
Title : Original - BD 3D
Language : English
Default : No
Forced : No
Text #1
ID : 4
Format : UTF-8
Codec ID : S_TEXT/UTF8
Codec ID/Info : UTF-8 Plain Text
Title : Форсированные
Language : Russian
Default : Yes
Forced : No
Text #2
ID : 5
Format : UTF-8
Codec ID : S_TEXT/UTF8
Codec ID/Info : UTF-8 Plain Text
Title : Полные
Language : Russian
Default : No
Forced : No
Text #3
ID : 6
Format : UTF-8
Codec ID : S_TEXT/UTF8
Codec ID/Info : UTF-8 Plain Text
Title : Full
Language : English
Default : No
Forced : No
Text #4
ID : 7
Format : UTF-8
Codec ID : S_TEXT/UTF8
Codec ID/Info : UTF-8 Plain Text
Title : SDH
Language : English
Default : No
Forced : No
Menu
00:00:00.000 : :1
00:08:10.782 : :2
00:14:15.813 : :3
00:23:38.250 : :4
00:30:02.050 : :5
00:39:31.869 : :6
00:48:16.060 : :7
00:54:13.000 : :8
01:02:26.493 : :9
01:12:36.727 : :10
01:20:57.770 : :11
01:30:52.072 : :12

Для оценки 3Д - Анимированные скрины












4.12.2014. Релиз обновлён - русская дорога заменена на лицензию, добавлены субтитры.
Желающие, скачайте заново торрент-файл.

_________________
Показать сообщения:    

Текущее время: Сегодня 07:24

Часовой пояс: GMT



Вы не можете начинать темы
Вы не можете отвечать на сообщения
Вы не можете редактировать свои сообщения
Вы не можете удалять свои сообщения
Вы не можете голосовать в опросах
Вы не можете прикреплять файлы к сообщениям
Вы не можете скачивать файлы