Важное объявление!
У Нас Все раздачи мультитрекерные, при нуле пиров в релизах, можете смело вставать на закачку!
 
Автор Сообщение

дежурный_по_апрелю

Стаж:
4 года 2 месяца
Сообщений:
45

Репутация: 11

[+] [-]
Вне форума [Профиль] [ЛС]

Выше неба / Вышэй за неба / Режиссерская версия-
Страна: Беларусь
Жанр: драма
Год выпуска: 2012
Продолжительность: 02:13:30
Перевод: Не требуется
Cубтитры: нет
Режиссер: Дмитрий Маринин-В ролях:
Леонид Пашковский, Олеся Грибок, Оксана Чивелева, Евгений Булка, Дмитрий Винсент Попко, Иван Трус, Виктор Рыбчинский, Татьяна Бовкалова, Ольга Нефедова, Тамара Миронова-Описание:
Главный герой — молодой белорус Никита Мицкевич. Ему около 20 лет, живет и учится в Минске. Он музыкант, композитор, играет в модной минской группе…
Но тут происходит событие, которое переворачивает всю его жизнь - Никита заболевает ВИЧ. О его беде узнаёт его окружение: любимая бросает его, группа отворачивается...
-Доп. информация:

Качество видео: HDTVRip, исходник - HDTV
Формат видео: AVI
Видео: 720x304 (2.37:1), 25 fps, XviD build 65 ~1336 kbps avg, 0.24 bit/pixel
Аудио: 48 kHz, AC3 Dolby Digital, 2/0 (L,R) ch, ~192 kbps
Сэмпл

MediaInfo

Общее
Полное имя : D:\Torrent\Выше неба\Выше неба_1.46\Выше неба_1.46.avi
Формат : AVI
Формат/Информация : Audio Video Interleave
Размер файла : 1,43 Гбайт
Продолжительность : 2 ч. 13 м.
Общий поток : 1538 Кбит/сек
Программа кодирования : VirtualDubMod 1.5.10.3 | www.virtualdub-fr.org || (build 2550/release)
Библиотека кодирования : VirtualDubMod build 2550/release
Видео
Идентификатор : 0
Формат : MPEG-4 Visual
Профиль формата : Advanced Simple@L5
Параметр BVOP формата : 1
Параметр QPel формата : Нет
Параметр GMC формата : Без точки перехода
Параметр матрицы формата : Выборочная
Идентификатор кодека : XVID
Идентификатор кодека/Подсказка : XviD
Продолжительность : 2 ч. 13 м.
Битрейт : 1336 Кбит/сек
Ширина : 720 пикселей
Высота : 304 пикселя
Соотношение сторон : 2,35:1
Частота кадров : 25,000 кадров/сек
Цветовое пространство : YUV
Субдискретизация насыщенности : 4:2:0
Битовая глубина : 8 бит
Тип развёртки : Прогрессивная
Метод сжатия : С потерями
Бит/(Пиксели*Кадры) : 0.244
Размер потока : 1,25 Гбайт (87%)
Библиотека кодирования : XviD 65
Аудио
Идентификатор : 1
Формат : AC-3
Формат/Информация : Audio Coding 3
Расширение режима : CM (complete main)
Параметр Endianness формата : Big
Идентификатор кодека : 2000
Продолжительность : 2 ч. 13 м.
Вид битрейта : Постоянный
Битрейт : 192 Кбит/сек
Каналы : 2 канала
Расположение каналов : Front: L R
Частота : 48,0 КГц
Битовая глубина : 16 бит
Метод сжатия : С потерями
Размер потока : 183 Мбайт (12%)
Выравнивание : Разделение по промежуткам
Продолжительность промежутка : 40 мс. (1,00 видеокадр)
Время предзагрузки промежутка : 500 мс.

Скриншот c названием фильма

Скриншоты

Скриншоты - обращение авторов


_________________

Что наша жизнь - игра, Соло... И не прожить ее, не сыграть без обмана и фальши. Но ИГРАТЬ нужно... bu
Показать сообщения:    

Текущее время: Сегодня 21:57

Часовой пояс: GMT



Вы не можете начинать темы
Вы не можете отвечать на сообщения
Вы не можете редактировать свои сообщения
Вы не можете удалять свои сообщения
Вы не можете голосовать в опросах
Вы не можете прикреплять файлы к сообщениям
Вы не можете скачивать файлы