Важное объявление!
У Нас Все раздачи мультитрекерные, при нуле пиров в релизах, можете смело вставать на закачку!
 
Автор Сообщение

HUNTER

Стаж:
4 года 4 месяца
Сообщений:
56790

Репутация: 101

[+] [-]
Вне форума [Профиль] [ЛС]

Вычислитель--

  • Год выпуска: 2014
  • Страна: Россия
  • Жанр: Фантастика
  • Продолжительность: 01:19:41
  • Перевод: Оригинал
  • Субтитры: Нет
  • В ролях: Евгений Миронов, Винни Джонс, Анна Чиповская, Иван Верховых, Владас Багдонас, Алексей Колубков, Никита Панфилов, Линда Нигматулина, Пётр Сковцов, Ирене Мускара
  • Режиссёр: Дмитрий Грачев

    Десять заключенных, приговоренных к пожизненному изгнанию с планеты XT-59, отправляются в опасный путь через Саргассово Болото. Группа сразу делится на две части: Эрвин и Кристи идут на поиск Счастливых Островов, Юст ведет остальных к Гнилой Мели. Однако долгое время их маршруты практически совпадают. В первый же вечер Эрвин понимает, что его должны убить - в прошлой жизни он занимал слишком высокий пост, и теперь он опасен для тех, кто пришел к власти. Выбрав в попутчицы Кристи, он сразу старается уйти подальше от остальных членов группы, чтобы обезопасить себя. На пути к Счастливым островам герои преодолевают массу препятствий. Цена этому - свобода и счастье.--
  • Качество: WEBRip-AVC
  • Формат: MKV
  • Видео кодек: AVC
  • Аудио кодек: AC3
  • Видео: AVC at 2635 Кбит/сек, 1008 x 420 (2.400) at 25.000 fps
  • Аудио: AC3, 384 kb/s, 2 канала, 48 Кгц
--

MI

Код: copyText_writeLink('this.parentNode.parentNode.nextSibling.nextSibling');
Код:
Формат                                   : Matroska
Версия формата                           : Version 2
Размер файла                             : 1,68 Гбайт
Продолжительность                        : 1 ч. 19 м.
Общий поток                              : 3021 Кбит/сек
Дата кодирования                         : UTC 2015-01-08 07:53:23
Программа кодирования                    : mkvmerge v6.1.0 ('Old Devil') built on Mar  4 2013 09:10:42
Библиотека кодирования                   : libebml v1.3.0 + libmatroska v1.4.0
DURATION                                 : 01:19:41.792000000
NUMBER_OF_FRAMES                         : 149431
NUMBER_OF_BYTES                          : 229526016
_STATISTICS_WRITING_APP                  : mkvmerge v7.5.0 ('Glass Culture') 64bit built on Jan  4 2015 16:48:44
_STATISTICS_WRITING_DATE_UTC             : 2015-01-08 01:04:24
_STATISTICS_TAGS                         : BPS DURATION NUMBER_OF_FRAMES NUMBER_OF_BYTES
Видео
Идентификатор                            : 1
Формат                                   : AVC
Формат/Информация                        : Advanced Video Codec
Профиль формата                          : High@L4.1
Параметр CABAC формата                   : Да
Параметр ReFrames формата                : 5 кадров
Идентификатор кодека                     : V_MPEG4/ISO/AVC
Продолжительность                        : 1 ч. 19 м.
Битрейт                                  : 2635 Кбит/сек
Ширина                                   : 1008 пикселей
Высота                                   : 420 пикселей
Соотношение сторон                       : 2,40:1
Режим частоты кадров                     : Постоянный
Частота кадров                           : 25,000 кадров/сек
Цветовое пространство                    : YUV
Субдискретизация насыщенности            : 4:2:0
Битовая глубина                          : 8 бит
Тип развёртки                            : Прогрессивная
Бит/(Пиксели*Кадры)                      : 0.249
Размер потока                            : 1,43 Гбайт (85%)
Библиотека кодирования                   : x264 core 130 r2273 b3065e6
Настройки программы                      : cabac=1 / ref=5 / deblock=1:-1:-2 / analyse=0x3:0x133 / me=umh / subme=7 / psy=1 / psy_rd=1.00:0.10 / mixed_ref=1 / me_range=24 / chroma_me=1 / trellis=2 / 8x8dct=1 / cqm=0 / deadzone=21,11 / fast_pskip=0 / chroma_qp_offset=-3 / threads=6 / lookahead_threads=1 / sliced_threads=0 / nr=0 / decimate=0 / interlaced=0 / bluray_compat=0 / constrained_intra=0 / bframes=3 / b_pyramid=2 / b_adapt=2 / b_bias=0 / direct=3 / weightb=1 / open_gop=0 / weightp=2 / keyint=250 / keyint_min=25 / scenecut=40 / intra_refresh=0 / rc_lookahead=50 / rc=2pass / mbtree=1 / bitrate=2635 / ratetol=1.0 / qcomp=0.60 / qpmin=0 / qpmax=69 / qpstep=4 / cplxblur=20.0 / qblur=0.5 / ip_ratio=1.40 / aq=1:1.00
Default                                  : Да
Forced                                   : Нет
Аудио
Идентификатор                            : 2
Формат                                   : AC-3
Формат/Информация                        : Audio Coding 3
Расширение режима                        : CM (complete main)
Параметр Endianness формата              : Big
Идентификатор кодека                     : A_AC3
Продолжительность                        : 1 ч. 19 м.
Вид битрейта                             : Постоянный
Битрейт                                  : 384 Кбит/сек
Каналы                                   : 2 канала
Расположение каналов                     : Front: L R
Частота                                  : 48,0 КГц
Битовая глубина                          : 16 бит
Метод сжатия                             : С потерями
Размер потока                            : 219 Мбайт (13%)
Язык                                     : Russian
Default                                  : Да
Forced                                   : Нет

Трейлер

Скриншоты

-Источник:

_________________
Показать сообщения:    

Текущее время: Сегодня 13:23

Часовой пояс: GMT



Вы не можете начинать темы
Вы не можете отвечать на сообщения
Вы не можете редактировать свои сообщения
Вы не можете удалять свои сообщения
Вы не можете голосовать в опросах
Вы не можете прикреплять файлы к сообщениям
Вы не можете скачивать файлы