Важное объявление!
У Нас Все раздачи мультитрекерные, при нуле пиров в релизах, можете смело вставать на закачку!
 
Автор Сообщение

HUNTER

Стаж:
4 года 4 месяца
Сообщений:
56734

Репутация: 101

[+] [-]
Вне форума [Профиль] [ЛС]

Выскочка / Election-
Год выпуска: 1999
Страна: США
Жанр: драма, комедия
Продолжительность: 01:42:57
Перевод: Профессиональный (двухголосый, закадровый) Премьер Видео / iTunes Russia
Оригинальная звуковая дорожка: English
Субтитры: Russian, Enlish, English (SDH)-Режиссер: Александр Пэйн
В ролях: Мэттью Бродерик, Риз Уизерспун, Крис Клейн, Джесика Кэмпбелл, Марк Харелик, Фил Ривз, Молли Хэйгэн, Делани Дрисколл, Коллин Кэмп, Фрэнки Инграссия
О фильме: Настоящая война развернулась между самой активной и нахальной ученицей школы Харвер Хай Трэйси Флик и ее учителем Джимом МакАлистером. Выскочка Трэйси хочет во что бы то ни стало быть избранной президентом школьного совета, а мистер МакАлистер, зная вероломный и склочный характер Флик, готов пойти на все, чтобы этого не случилось. К сожалению, мистер МакАлистер даже не представлял, с кем связался...
SbR!
Релиз:
Формат: MKV
Видео: 1280x546 at 23.976 fps, x264, ~8416 kbps
Аудио #01: Russian: 48 kHz, AC3, 3/2 (L,C,R,l,r) + LFE ch, ~384.00 kbps avg |Двухголосый закадровый, Премьер Видео / iTunes Russia|
Аудио #02: English: 48 kHz, AC3, 3/2 (L,C,R,l,r) + LFE ch, ~640.00 kbps avg
Аудио #03: English: 48 kHz, AC3, 2/0 (L,R) ch, ~224.00 kbps avg |Commentary with Director Alexander Payne|
Семпл-

Source vs Encode





-

mInfo

Формат : Matroska
Версия формата : Version 2
Размер файла : 7,82 Гбайт
Продолжительность : 1 ч. 42 м.
Общий поток : 10,9 Мбит/сек
Название фильма : Election (1999) - Release for HDCLUB
Дата кодирования : UTC 2013-10-07 20:04:59
Программа кодирования : mkvmerge v5.7.0 ('The Whirlwind') built on Jul 8 2012 20:08:51
Библиотека кодирования : libebml v1.2.3 + libmatroska v1.3.0
Attachment : Yes
Видео
Идентификатор : 1
Формат : AVC
Формат/Информация : Advanced Video Codec
Профиль формата : High@L4.1
Параметр CABAC формата : Да
Параметр ReFrames формата : 11 кадров
Идентификатор кодека : V_MPEG4/ISO/AVC
Продолжительность : 1 ч. 42 м.
Битрейт : 9408 Кбит/сек
Ширина : 1280 пикселей
Высота : 546 пикселей
Соотношение сторон : 2,35:1
Режим частоты кадров : Постоянный
Частота кадров : 23,976 кадра/сек
Цветовое пространство : YUV
Субдискретизация насыщенности : 4:2:0
Битовая глубина : 8 бит
Тип развёртки : Прогрессивная
Бит/(Пиксели*Кадры) : 0.561
Размер потока : 6,77 Гбайт (87%)
Библиотека кодирования : x264 core 135 r2345kMod f0c1c53
Настройки программы : cabac=1 / ref=11 / deblock=1:-2:-2 / analyse=0x3:0x133 / me=umh / subme=11 / psy=1 / fade_compensate=0.00 / psy_rd=1.15:0.10 / mixed_ref=1 / me_range=32 / chroma_me=1 / trellis=2 / 8x8dct=1 / cqm=0 / deadzone=21,11 / fast_pskip=0 / chroma_qp_offset=-3 / threads=9 / lookahead_threads=2 / sliced_threads=0 / nr=0 / decimate=1 / interlaced=0 / bluray_compat=0 / constrained_intra=0 / bframes=12 / b_pyramid=2 / b_adapt=2 / b_bias=0 / direct=3 / weightb=1 / open_gop=0 / weightp=2 / keyint=250 / keyint_min=23 / scenecut=40 / intra_refresh=0 / rc=crf / mbtree=0 / crf=19.5000 / qcomp=0.95 / qpmin=0 / qpmax=69 / qpstep=4 / ip_ratio=1.30 / pb_ratio=1.20 / aq=3:0.65
Язык : English
Default : Да
Forced : Нет
Аудио #1
Идентификатор : 2
Формат : AC-3
Формат/Информация : Audio Coding 3
Расширение режима : CM (complete main)
Параметр Endianness формата : Big
Идентификатор кодека : A_AC3
Продолжительность : 1 ч. 42 м.
Вид битрейта : Постоянный
Битрейт : 384 Кбит/сек
Каналы : 6 каналов
Расположение каналов : Front: L C R, Side: L R, LFE
Частота : 48,0 КГц
Битовая глубина : 16 бит
Метод сжатия : С потерями
Размер потока : 283 Мбайт (4%)
Заголовок : |Двухголосый закадровый, iTunes Russia|
Язык : Russian
Default : Да
Forced : Нет
Аудио #2
Идентификатор : 3
Формат : AC-3
Формат/Информация : Audio Coding 3
Расширение режима : CM (complete main)
Параметр Endianness формата : Big
Идентификатор кодека : A_AC3
Продолжительность : 1 ч. 42 м.
Вид битрейта : Постоянный
Битрейт : 640 Кбит/сек
Каналы : 5 каналов
Расположение каналов : Front: L C R, Side: L R
Частота : 48,0 КГц
Битовая глубина : 16 бит
Метод сжатия : С потерями
Размер потока : 471 Мбайт (6%)
Язык : English
Default : Нет
Forced : Нет
Аудио #3
Идентификатор : 4
Формат : AC-3
Формат/Информация : Audio Coding 3
Профиль формата : Dolby Digital
Расширение режима : CM (complete main)
Параметр Endianness формата : Big
Идентификатор кодека : A_AC3
Продолжительность : 1 ч. 42 м.
Вид битрейта : Постоянный
Битрейт : 224 Кбит/сек
Каналы : 2 канала
Расположение каналов : Front: L R
Частота : 48,0 КГц
Битовая глубина : 16 бит
Метод сжатия : С потерями
Размер потока : 165 Мбайт (2%)
Заголовок : |Commentary with Director Alexander Payne|
Язык : English
Default : Нет
Forced : Нет
Текст #1
Идентификатор : 5
Формат : UTF-8
Идентификатор кодека : S_TEXT/UTF8
Идентификатор кодека/Информация : UTF-8 Plain Text
Язык : Russian
Default : Нет
Forced : Нет
Текст #2
Идентификатор : 6
Формат : UTF-8
Идентификатор кодека : S_TEXT/UTF8
Идентификатор кодека/Информация : UTF-8 Plain Text
Язык : English
Default : Нет
Forced : Нет
Текст #3
Идентификатор : 7
Формат : UTF-8
Идентификатор кодека : S_TEXT/UTF8
Идентификатор кодека/Информация : UTF-8 Plain Text
Заголовок : SDH
Язык : English
Default : Нет
Forced : Нет
Текст #4
Идентификатор : 8
Формат : UTF-8
Идентификатор кодека : S_TEXT/UTF8
Идентификатор кодека/Информация : UTF-8 Plain Text
Язык : Romanian
Default : Нет
Forced : Нет
Меню
00:00:00.000 : :00:00:00.000
00:07:08.553 : :00:07:08.553
00:14:36.917 : :00:14:36.917
00:19:16.071 : :00:19:16.071
00:25:52.175 : :00:25:52.175
00:32:07.759 : :00:32:07.759
00:36:17.717 : :00:36:17.717
00:45:19.466 : :00:45:19.466
00:49:25.128 : :00:49:25.128
00:53:09.394 : :00:53:09.394
00:59:43.329 : :00:59:43.329
01:03:29.722 : :01:03:29.722
01:08:35.361 : :01:08:35.361
01:16:34.840 : :01:16:34.840
01:26:09.455 : :01:26:09.455
01:30:47.483 : :01:30:47.483
01:34:21.697 : :01:34:21.697
01:39:13.781 : :01:39:13.781
-

_________________
Показать сообщения:    

Текущее время: Сегодня 17:59

Часовой пояс: GMT



Вы не можете начинать темы
Вы не можете отвечать на сообщения
Вы не можете редактировать свои сообщения
Вы не можете удалять свои сообщения
Вы не можете голосовать в опросах
Вы не можете прикреплять файлы к сообщениям
Вы не можете скачивать файлы