Важное объявление!
У Нас Все раздачи мультитрекерные, при нуле пиров в релизах, можете смело вставать на закачку!
 
Автор Сообщение

admin

Стаж:
4 года 4 месяца
Сообщений:
5

Репутация: 1

[+] [-]
Вне форума [Профиль] [ЛС]

Вызов
Год выпуска: 2006
Производство: Intra Communications, Inc., "Югра-фильм"
Жанр: детектив
Продолжительность: ~0:45:00 серия
Субтитры: отсутствуют
Режиссер: Анатолий Артамонов, Арменак Назикян, Анджей Петрас
В ролях: Дмитрий Назаров, Наталия Житкова, Алексей Шутов, Ольга Васильева-Назарова, Валерий Афанасьев, Сергей Дорогов, Дмитрий Ячевский, Константин Милованов и др.
Описание: Группа профессиональных московских следователей, состоящая из трех человек Алексея Хромова, его помощника и любимца женщин по совместительству Игоря Лямина и эксперта-криминалиста Ольги Барышевой специализируется на раскрытии загадочных преступлений...-Все раздачи сериала / Сэмпл-Релиз: -Качество: SATRip
Формат: AVI
Видео кодек: XviD
Аудио кодек: MP3
Видео: XviD, 704x400 (16:9), 25.000 fps, 1 618 Kbps (0.230 bit/pixel)
Аудио: MP3, 48.0 KHz, 2 ch, 128 Kbps, CBR-

Описание серий

Фильм 1 (серии 1-4) «И раб, и царь»

Главные герои оказываются в провинциальном Озерске. Здесь в течение нескольких месяцев совершаются ритуальные убийства. На телах жертв следователи каждый раз обнаруживают предметы из местного могильника скифов. Жители города напуганы слухами о том, что могильник ожил. Главные герои попадают в водоворот невероятных событий.

Фильм 2 (серии 5-8) «Отражение»

Маленький провинциальный городок Белогорск шокирован серией странных самоубийств. Жертвами становятся крупные промышленники, банкиры и девушки из местного модельного агентства. В ходе расследования выясняется, что судьбы всех самоубийц были тесно связаны. Сотрудникам МУРА предстоит выяснить ту таинственную причину, которая побуждает преуспевающих людей сводить счеты с жизнью.

Фильм 3 (серии 9-12) «Чужая тень»

Группа московских следователей отправляется в Рязанскую область. В краеведческом музее города Климова — бывшем поместье старинного дворянского рода — видеокамеры фиксируют настоящее приведение. Каждый раз оно принимает облик новых жертв таинственного убийцы. Главные герои понимают, что приведение — ключ к разгадке всех недавно совершенных преступлений в городе. Удастся ли им разгадать тайну призрака?
-

Сравнение

сравнение с DVDRip http://reactorr.org/viewtopic.php?t=2345225
http://screenshotcomparison.com/comparison/137250/
Сравнение с SATRip http://reactorr.org/viewtopic.php?t=29205
первые три сравнения в оригинальном разрешении последующие три - с подрезкой и увеличением
http://screenshotcomparison.com/comparison/137251/
-

MediaInfo

ОбщееПолное имя : H:\Раздачи\SATRip\Вызов\Вызов.01.aviФормат : AVIФормат/Информация : Audio Video InterleaveРазмер файла : 555 МбайтПродолжительность : 44 м.Общий поток : 1725 Кбит/секПрограмма кодирования : VirtualDubMod 1.5.10.3 | www.virtualdub-fr.org || (build 2550/release)Библиотека кодирования : VirtualDubMod build 2550/release
ВидеоИдентификатор : 0Формат : MPEG-4 VisualПрофиль формата : Advanced Simple@L5Параметр BVOP формата : 2Параметр QPel формата : НетПараметр GMC формата : Без точки переходаПараметр матрицы формата : Default (MPEG)Идентификатор кодека : XVIDИдентификатор кодека/Подсказка : XviDПродолжительность : 44 м.Битрейт : 1587 Кбит/секШирина : 704 пикселяВысота : 400 пикселейСоотношение сторон : 16:9Частота кадров : 25,000 кадров/секЦветовое пространство : YUVСубдискретизация насыщенности : 4:2:0Битовая глубина : 8 битТип развёртки : ПрогрессивнаяМетод сжатия : С потерямиБит/(Пиксели*Кадры) : 0.225Размер потока : 510 Мбайт (92%)Библиотека кодирования : XviD 65
АудиоИдентификатор : 1Формат : MPEG AudioВерсия формата : Version 1Профиль формата : Layer 3Идентификатор кодека : 55Идентификатор кодека/Подсказка : MP3Продолжительность : 44 м.Вид битрейта : ПостоянныйБитрейт : 128 Кбит/секКаналы : 2 каналаЧастота : 48,0 КГцМетод сжатия : С потерямиРазмер потока : 41,2 Мбайт (7%)Выравнивание : Соединение по промежуткамПродолжительность промежутка : 40 мс. (1,00 видеокадр)Время предзагрузки промежутка : 504 мс.Библиотека кодирования : LAME3.98rНастройки программы : -m s -V 4 -q 2 -lowpass 17 -b 128

Скриншоты


--

Внимание! Раздача ведётся путём добавления новых выпусков

При каждом добавлении создаётся новый торрент. Чтобы начать докачку нового выпуска, пользователям необходимо сделать следующее:
● остановить скачивание;
● удалить старый торрент у себя из клиента (старые выпуски удалять не надо);
● скачать новый торрент и запустить его у себя в клиенте вместо старого, при этом указать клиенту путь в старую папку куда и должно происходить скачивание новых выпусков;
● ваш клиент при запуске должен произвести хеширование (проверку) старой папки (если не производит сам - помогите ему сделать это), и будет докачивать только те выпуски, которых у вас ещё нет. Старые выпуски при этом не удаляются, а продолжают раздаваться!
● Eсли вы уже удалили старые выпуски, то предотвратить повторную закачку старых выпусков можно, отжав галочку в соответсвующих местах при запуске нового торрента.
Показать сообщения:    

Текущее время: Сегодня 08:33

Часовой пояс: GMT



Вы не можете начинать темы
Вы не можете отвечать на сообщения
Вы не можете редактировать свои сообщения
Вы не можете удалять свои сообщения
Вы не можете голосовать в опросах
Вы не можете прикреплять файлы к сообщениям
Вы не можете скачивать файлы