Важное объявление!
У Нас Все раздачи мультитрекерные, при нуле пиров в релизах, можете смело вставать на закачку!
 
Автор Сообщение

HUNTER

Стаж:
4 года 4 месяца
Сообщений:
56722

Репутация: 101

[+] [-]
Вне форума [Профиль] [ЛС]

Выдача багажа / Baggage Claim-
Страна: США, Sneak Preview Productions
Жанр: комедия
Год выпуска: 2013
Продолжительность: 01:36:30-Перевод: Профессиональный (многоголосый закадровый) лицензия
Cубтитры: нет
Оригинальная аудиодорожка: английский
Режиссер: Дэвид Е. Талберт / David E. Talbert-В ролях: Пола Пэттон, Дерек Люк, Тэй Диггз, Борис Коджо, Трей Сонгз, Джилл Скотт, Адам Броди, Дженифер Льюис, Джимон Хонсу, Лорен Лондон-«She's done flying solo»Описание: Пообещав не стать самой старшей незамужней женщиной в своей семье, Монтана отправляется на тридцатидневную экспедицию, чтобы очаровать потенциальных женихов.-IMDB | КиноПоиск | Sample-Качество видео: BDRip 720p
Формат видео: MKV-Видео: MPEG4, 1280x692, 23.976 fps, 5426 Кбит/с
Аудио: AC3, 48.0 KHz, 6ch, 384 Кбит/с - русский
Аудио 2: DTS, 48.0 KHz, 6ch, 1510 Кбит/с - английский-

MediaInfo

C:\Other\Baggage.Claim.2013.720p.BluRay.x264.DTS-HDWinG.mkv
General
Unique ID : 252349087050680507280394489318563130492 (0xBDD8AA93E14334B59D7C6B67A8E42C7C)
Complete name : C:\Other\Baggage.Claim.2013.720p.BluRay.x264.DTS-HDWinG.mkv
Format : Matroska
Format version : Version 2
File size : 4.93 GiB
Duration : 1h 36mn
Overall bit rate : 7 312 Kbps
Movie name : diana
Encoded date : UTC 2014-02-12 10:35:23
Writing application : mkvmerge v6.7.0 ('Back to the Ground') 32bit built on Jan 8 2014 15:03:17
Writing library : libebml v1.3.0 + libmatroska v1.4.1
Video #1
ID : 1
Format : AVC
Format/Info : Advanced Video Codec
Format profile : High@L4.1
Format settings, CABAC : Yes
Format settings, ReFrames : 12 frames
Codec ID : V_MPEG4/ISO/AVC
Duration : 1h 36mn
Bit rate : 5 426 Kbps
Width : 1 280 pixels
Height : 692 pixels
Display aspect ratio : 1.850
Frame rate : 23.976 fps
Color space : YUV
Chroma subsampling : 4:2:0
Bit depth : 8 bits
Scan type : Progressive
Bits/(Pixel*Frame) : 0.255
Stream size : 3.55 GiB (72%)
Writing library : x264 core 135 r2345 f0c1c53
Encoding settings : cabac=1 / ref=12 / deblock=1:-3:-3 / analyse=0x3:0x113 / me=umh / subme=11 / psy=1 / psy_rd=1.05:0.00 / mixed_ref=1 / me_range=32 / chroma_me=1 / trellis=2 / 8x8dct=1 / cqm=0 / deadzone=21,11 / fast_pskip=0 / chroma_qp_offset=-2 / threads=12 / lookahead_threads=2 / sliced_threads=0 / nr=0 / decimate=0 / interlaced=0 / bluray_compat=0 / constrained_intra=0 / bframes=8 / b_pyramid=2 / b_adapt=2 / b_bias=0 / direct=3 / weightb=1 / open_gop=0 / weightp=2 / keyint=240 / keyint_min=24 / scenecut=40 / intra_refresh=0 / rc=2pass / mbtree=0 / bitrate=5426 / ratetol=1.0 / qcomp=0.70 / qpmin=0 / qpmax=69 / qpstep=4 / cplxblur=20.0 / qblur=0.5 / ip_ratio=1.20 / pb_ratio=1.20 / aq=1:0.80
Audio #2
ID : 2
Format : AC-3
Format/Info : Audio Coding 3
Mode extension : CM (complete main)
Codec ID : A_AC3
Duration : 1h 36mn
Bit rate mode : Constant
Bit rate : 384 Kbps
Channel(s) : 6 channels
Channel positions : Front: L C R, Side: L R, LFE
Sampling rate :
Bit depth : 16 bits
Compression mode : Lossy
Stream size : 265 MiB (5%)
Audio #3
ID : 3
Format : DTS
Format/Info : Digital Theater Systems
Codec ID : A_DTS
Duration : 1h 36mn
Bit rate mode : Constant
Bit rate : 1 510 Kbps
Channel(s) : 6 channels
Channel positions : Front: L C R, Side: L R, LFE
Sampling rate : 48.0 KHz
Bit depth : 24 bits
Compression mode : Lossy
Stream size : 1.02 GiB (21%)
Language : English

Скриншот c названием фильма

Скриншоты


_________________
Показать сообщения:    

Текущее время: Сегодня 10:30

Часовой пояс: GMT



Вы не можете начинать темы
Вы не можете отвечать на сообщения
Вы не можете редактировать свои сообщения
Вы не можете удалять свои сообщения
Вы не можете голосовать в опросах
Вы не можете прикреплять файлы к сообщениям
Вы не можете скачивать файлы