Важное объявление!
У Нас Все раздачи мультитрекерные, при нуле пиров в релизах, можете смело вставать на закачку!
 
Автор Сообщение

HUNTER

Стаж:
4 года 4 месяца
Сообщений:
56842

Репутация: 101

[+] [-]
Вне форума [Профиль] [ЛС]

Выбор капитана Корелли / Captain Corelli's Mandolin
Год выпуска: 2001
Страна: США, Франция, Великобритания
Жанр: драма, мелодрама,
Продолжительность: 02:08:54
Перевод 1: Профессиональный (дублированный)
Перевод 2: Профессиональный (многоголосый закадровый, Киномания)
Перевод 3: Авторский (одноголосый закадровый) А. Карповский
Оригинальная аудиодорожка: английский
Субтитры: русские, английские.
Режиссер: Джон Мэдден / John Madden
В ролях: Николас Кейдж, Пенелопа Крус, Джон Хёрт, Кристиан Бэйл, Ирен Папас, Герасимос Скиадаресис, Aspasia Kralli, Майкл Яннатос, Димитрис Каберидис, Пьетро Сарубби-Описание: В размеренную жизнь прекрасного греческого вмешалась война. На мирный берег высадились итальянские войска. И судьба Пелагии, дочери местного врача, изменилась в : вместо скорой свадьбы - расставание с любимым...
Итальянский офицер, капитан Корелли влюбился в Пелагию, как только ее увидел. Красавица поразила сердце Антонио. Но шла война, а он был солдатом на чужой земле...
«Я пытался жить без тебя думал смогу, но не смог.»

Рип от: DON
Качество: BDRip
Формат: MKV
Видео кодек: x264
Аудио кодек: AC3
Видео: 1280x544, 23.976 fps,@L4.1 x264, - 9000 Kbps
Аудио#1: Russian: 48 kHz, AC3 5.1 @ 448 Kbps - Дубляж
Аудио#2: Russian: 48 kHz, AC3 5.1 @ 384 Kbps - Многоголосый, Киномания
Аудио#3: Russian: 48 kHz, AC3 5.1 @ 384 Kbps - Одноголосый, А.Карповский
Аудио#4: English: 48 kHz, AC3 5.1 @ 640 Kbps - Английский / оригинал
Субтитры: Russian, English, French, German, Portuguese, Spanish
Сохранены и подписаны оригинальные чаптеры как на Blu-ray.

Mediainfo

Captain.Corelli's.Mandolin.2001.720p.BluRay.x264-DON.mkv
Формат : Matroska
Версия формата : Version 4 / Version 2
Размер файла : 9,77 Гбайт
Продолжительность : 2 ч. 8 м.
Общий поток : 10,9 Мбит/сек
Название фильма : Captain Corelli's Mandolin (2001)
Дата кодирования : UTC 2014-01-30 22:11:59
Программа кодирования : mkvmerge v6.7.0 ('Back to the Ground') 64bit built on Jan 8 2014 15:10:52
Библиотека кодирования : libebml v1.3.0 + libmatroska v1.4.1
Видео
Идентификатор : 1
Формат : AVC
Формат/Информация : Advanced Video Codec
Профиль формата : High@L4.1
Параметр CABAC формата : Да
Параметр ReFrames формата : 12 кадров
Идентификатор кодека : V_MPEG4/ISO/AVC
Продолжительность : 2 ч. 8 м.
Битрейт : 9000 Кбит/сек
Ширина : 1280 пикселей
Высота : 544 пикселя
Соотношение сторон : 2,35:1
Режим частоты кадров : Постоянный
Частота кадров : 23,976 кадра/сек
Цветовое пространство : YUV
Субдискретизация насыщенности : 4:2:0
Битовая глубина : 8 бит
Тип развёртки : Прогрессивная
Бит/(Пиксели*Кадры) : 0.539
Размер потока : 7,91 Гбайт (81%)
Библиотека кодирования : x264 core 140 r2377 1ca7bb9
Настройки программы : cabac=1 / ref=12 / deblock=1:-3:-3 / analyse=0x3:0x133 / me=tesa / subme=10 / psy=1 / psy_rd=1.05:0.00 / mixed_ref=1 / me_range=24 / chroma_me=1 / trellis=2 / 8x8dct=1 / cqm=0 / deadzone=21,11 / fast_pskip=1 / chroma_qp_offset=-2 / threads=12 / lookahead_threads=2 / sliced_threads=0 / nr=0 / decimate=0 / interlaced=0 / bluray_compat=0 / constrained_intra=0 / bframes=8 / b_pyramid=2 / b_adapt=2 / b_bias=0 / direct=3 / weightb=1 / open_gop=0 / weightp=2 / keyint=250 / keyint_min=23 / scenecut=40 / intra_refresh=0 / rc_lookahead=60 / rc=2pass / mbtree=0 / bitrate=9000 / ratetol=1.0 / qcomp=0.70 / qpmin=0 / qpmax=69 / qpstep=4 / cplxblur=20.0 / qblur=0.5 / vbv_maxrate=62500 / vbv_bufsize=78125 / nal_hrd=none / filler=0 / ip_ratio=1.30 / pb_ratio=1.20 / aq=1:0.70
Язык : English
Default : Да
Forced : Нет
Аудио #1
Идентификатор : 2
Формат : AC-3
Формат/Информация : Audio Coding 3
Расширение режима : CM (complete main)
Параметр Endianness формата : Big
Идентификатор кодека : A_AC3
Продолжительность : 2 ч. 8 м.
Вид битрейта : Постоянный
Битрейт : 448 Кбит/сек
Каналы : 6 каналов
Расположение каналов : Front: L C R, Side: L R, LFE
Частота : 48,0 КГц
Битовая глубина : 16 бит
Метод сжатия : С потерями
Размер потока : 413 Мбайт (4%)
Заголовок : AC3 5.1 @ 448 Kbps - Дубляж
Язык : Russian
Default : Да
Forced : Нет
Аудио #2
Идентификатор : 3
Формат : AC-3
Формат/Информация : Audio Coding 3
Расширение режима : CM (complete main)
Параметр Endianness формата : Big
Идентификатор кодека : A_AC3
Продолжительность : 2 ч. 8 м.
Вид битрейта : Постоянный
Битрейт : 384 Кбит/сек
Каналы : 6 каналов
Расположение каналов : Front: L C R, Side: L R, LFE
Частота : 48,0 КГц
Битовая глубина : 16 бит
Метод сжатия : С потерями
Размер потока : 354 Мбайт (4%)
Заголовок : AC3 5.1 @ 384 Kbps - Многоголосый, Киномания
Язык : Russian
Default : Нет
Forced : Нет
Аудио #3
Идентификатор : 4
Формат : AC-3
Формат/Информация : Audio Coding 3
Расширение режима : CM (complete main)
Параметр Endianness формата : Big
Идентификатор кодека : A_AC3
Продолжительность : 2 ч. 8 м.
Вид битрейта : Постоянный
Битрейт : 384 Кбит/сек
Каналы : 6 каналов
Расположение каналов : Front: L C R, Side: L R, LFE
Частота : 48,0 КГц
Битовая глубина : 16 бит
Метод сжатия : С потерями
Размер потока : 354 Мбайт (4%)
Заголовок : AC3 5.1 @ 384 Kbps - Одноголосый, А.Карповский
Язык : Russian
Default : Нет
Forced : Нет
Аудио #4
Идентификатор : 5
Формат : AC-3
Формат/Информация : Audio Coding 3
Расширение режима : CM (complete main)
Параметр Endianness формата : Big
Идентификатор кодека : A_AC3
Продолжительность : 2 ч. 8 м.
Вид битрейта : Постоянный
Битрейт : 640 Кбит/сек
Каналы : 6 каналов
Расположение каналов : Front: L C R, Side: L R, LFE
Частота : 48,0 КГц
Битовая глубина : 16 бит
Метод сжатия : С потерями
Размер потока : 590 Мбайт (6%)
Заголовок : AC3 5.1 @ 640 Kbps
Язык : English
Default : Нет
Forced : Нет
Текст #1
Идентификатор : 6
Формат : UTF-8
Идентификатор кодека : S_TEXT/UTF8
Идентификатор кодека/Информация : UTF-8 Plain Text
Язык : Russian
Default : Нет
Forced : Нет
Текст #2
Идентификатор : 7
Формат : UTF-8
Идентификатор кодека : S_TEXT/UTF8
Идентификатор кодека/Информация : UTF-8 Plain Text
Язык : English
Default : Нет
Forced : Нет
Текст #3
Идентификатор : 8
Формат : UTF-8
Идентификатор кодека : S_TEXT/UTF8
Идентификатор кодека/Информация : UTF-8 Plain Text
Язык : German
Default : Нет
Forced : Нет
Текст #4
Идентификатор : 9
Формат : UTF-8
Идентификатор кодека : S_TEXT/UTF8
Идентификатор кодека/Информация : UTF-8 Plain Text
Язык : French
Default : Нет
Forced : Нет
Текст #5
Идентификатор : 10
Формат : UTF-8
Идентификатор кодека : S_TEXT/UTF8
Идентификатор кодека/Информация : UTF-8 Plain Text
Язык : Czech
Default : Нет
Forced : Нет
Текст #6
Идентификатор : 11
Формат : UTF-8
Идентификатор кодека : S_TEXT/UTF8
Идентификатор кодека/Информация : UTF-8 Plain Text
Язык : Finnish
Default : Нет
Forced : Нет
Текст #7
Идентификатор : 12
Формат : UTF-8
Идентификатор кодека : S_TEXT/UTF8
Идентификатор кодека/Информация : UTF-8 Plain Text
Язык : Swedish
Default : Нет
Forced : Нет
Текст #8
Идентификатор : 13
Формат : UTF-8
Идентификатор кодека : S_TEXT/UTF8
Идентификатор кодека/Информация : UTF-8 Plain Text
Язык : Norwegian
Default : Нет
Forced : Нет
Текст #9
Идентификатор : 14
Формат : UTF-8
Идентификатор кодека : S_TEXT/UTF8
Идентификатор кодека/Информация : UTF-8 Plain Text
Язык : Danish
Default : Нет
Forced : Нет
Текст #10
Идентификатор : 15
Формат : UTF-8
Идентификатор кодека : S_TEXT/UTF8
Идентификатор кодека/Информация : UTF-8 Plain Text
Язык : Dutch
Default : Нет
Forced : Нет
Текст #11
Идентификатор : 16
Формат : UTF-8
Идентификатор кодека : S_TEXT/UTF8
Идентификатор кодека/Информация : UTF-8 Plain Text
Язык : Greek
Default : Нет
Forced : Нет
Текст #12
Идентификатор : 17
Формат : UTF-8
Идентификатор кодека : S_TEXT/UTF8
Идентификатор кодека/Информация : UTF-8 Plain Text
Язык : Romanian
Default : Нет
Forced : Нет
Текст #13
Идентификатор : 18
Формат : UTF-8
Идентификатор кодека : S_TEXT/UTF8
Идентификатор кодека/Информация : UTF-8 Plain Text
Язык : Hungarian
Default : Нет
Forced : Нет
Текст #14
Идентификатор : 19
Формат : UTF-8
Идентификатор кодека : S_TEXT/UTF8
Идентификатор кодека/Информация : UTF-8 Plain Text
Заголовок : Brazilian
Язык : Portuguese
Default : Нет
Forced : Нет
Текст #15
Идентификатор : 20
Формат : UTF-8
Идентификатор кодека : S_TEXT/UTF8
Идентификатор кодека/Информация : UTF-8 Plain Text
Заголовок : Iberian
Язык : Portuguese
Default : Нет
Forced : Нет
Текст #16
Идентификатор : 21
Формат : UTF-8
Идентификатор кодека : S_TEXT/UTF8
Идентификатор кодека/Информация : UTF-8 Plain Text
Язык : Slovenian
Default : Нет
Forced : Нет
Текст #17
Идентификатор : 22
Формат : UTF-8
Идентификатор кодека : S_TEXT/UTF8
Идентификатор кодека/Информация : UTF-8 Plain Text
Язык : Serbian
Default : Нет
Forced : Нет
Текст #18
Идентификатор : 23
Формат : UTF-8
Идентификатор кодека : S_TEXT/UTF8
Идентификатор кодека/Информация : UTF-8 Plain Text
Язык : Croatian
Default : Нет
Forced : Нет
Текст #19
Идентификатор : 24
Формат : UTF-8
Идентификатор кодека : S_TEXT/UTF8
Идентификатор кодека/Информация : UTF-8 Plain Text
Язык : Spanish
Default : Нет
Forced : Нет
Меню
00:00:00.000 : en:Our Island (Titles)
00:08:53.742 : en:The Coming War
00:12:10.146 : en:Betrothed
00:18:42.621 : en:The Invaders
00:29:39.361 : en:The Italian Captain
00:35:50.190 : en:Corelli's Mandolin
00:41:56.889 : en:The Opera Club
00:45:43.282 : en:Something to Sing About
00:55:33.872 : en:The Turkish Bomb
01:03:37.689 : en:Pelagia's Song
01:14:11.030 : en:Surrender
01:22:43.667 : en:The Last Cigarette
01:25:11.982 : en:War in Cephallonia
01:34:06.808 : en:The Executioners
01:39:21.497 : en:Back From the Dead
01:54:38.914 : en:The Earthquake
01:57:48.603 : en:I Can't Live Without You
02:01:36.289 : en:End Titles

-

RELEASE iNFO»...

RELEASE iNFO
RUNTIME.......: 2h:08m:54s
SIZE..........: 8.67 GB
VIDEO CODEC...: x264, 2pass, L4.1
FRAMERATE.....: 23.976 fps
BITRATE.......: Variable ~ 9000 Kbps
RESOLUTION....: 1280x544 (2.35:1)
AUDIO.........: English DD 5.1 @ 640 Kbps
SUBTITLES.....: English, Croatian, Czech, Danish, Dutch, Finnish,
French, German, Greek, Hungarian, Norwegian, Portuguese (BR+IB), Romanian, Serbian, Slovenian, Spanish, Swedish
SOURCE........: 1080p JPN Blu-ray AVC DTS-HD MA 5.1-EbP (thx MM)
GENRE.........: Drama | Music | Romance | War
IMDb RATING...: 5.7/10 (23,570 votes)
IMDb LINK.....: http://www.imdb.com/title/tt0238112/

-
-

_________________
Показать сообщения:    

Текущее время: Сегодня 14:05

Часовой пояс: GMT



Вы не можете начинать темы
Вы не можете отвечать на сообщения
Вы не можете редактировать свои сообщения
Вы не можете удалять свои сообщения
Вы не можете голосовать в опросах
Вы не можете прикреплять файлы к сообщениям
Вы не можете скачивать файлы